Поиск

(Soul) [CD] Eddie Kendricks - Keep On Truckin': The Motown Solo Albums, Vol. 1 - 2005, FLAC (tracks+.cue), lossless

(Soul) [CD] Eddie Kendricks - Keep On Truckin': The Motown Solo Albums, Vol. 1 - 2005, FLAC (tracks+.cue), lossless
Треклист:
Eddie Kendricks / Keep On Truckin': The Motown Solo Albums, Vol. 1
Жанр: Soul
Носитель: CD
Страна-производитель диска (релиза): USA
Год издания: 2005
Издатель (лейбл): Hip-O Select
Номер по каталогу: B0005132
Страна исполнителя (группы): USA
Аудиокодек: FLAC (*.flac)
Тип рипа: tracks+.cue
Битрейт аудио: lossless
Продолжительность: 2:26:14
Источник (релизер): MixSan
Наличие сканов в содержимом раздачи: да
Allmusic.com:
Треклист:
 
CD 1 - All By Myself (1971) & Hold On (1972)
01. Let's Go Back To Day One (03:34)
02. This Used To Be The Home Of Johnnie Mae (05:50)
03. I Did It All For You (03:10)
04. It's So Hard To Say Goodbye (03:11)
05. Something's Burning (04:30)
06. Can I (06:15)
07. Didn't We (03:11)
08. If You Let Me (03:25)
09. Let Me Run Into Your Lonely Heart (03:13)
10. Day By Day (03:19)
11. Girl You Need a Change of Mind (07:45)
12. Someday We'll Have a Better World (03:45)
13. My People ... Hold On (05:40)
14. Date With The Rain (02:44)
15. Eddie's Love (03:32)
16. I'm On The Sideline (02:58)
17. Just Memories (05:51)
 
CD 2 - Eddie Kendricks (1973) & For You (1974)
01. Only Room For Two (03:12)
02. Darling Come Back Home (04:15)
03. Each Day I Cry A Little (07:22)
04. Can't Help What I Am (04:26)
05. Keep On Truckin' (08:01)
06. Any Day Now (05:09)
07. Not On The Outside (04:29)
08. Where Do You Go (Baby) (03:25)
09. Please Don't Go Away (04:50)
10. One Tear (04:08)
11. Shoeshine Boy (03:17)
12. Deep And Quiet Love (05:33)
13. Let Yourself Go (05:45)
14. If (03:13)
15. If You Think (You Can) (04:00)
16. Time In A Bottle (03:00)
 
Logs & Cue
 
CD 1
 
Лог создания рипа
EAC extraction logfile from 13. January 2008, 10:07 for CD
Eddie Kendricks / Keep On Truckin': The Motown Solo Albums, Vol. 1 - CD 1
Used drive : SAMSUNG CD-ROM SC-148A Adapter: 1 ID: 0
Read mode : Secure with NO C2, accurate stream, disable cache
Read offset correction : 12
Overread into Lead-In and Lead-Out : No
Used output format : C:\FLAC\flac.exe (User Defined Encoder)
160 kBit/s
Additional command line options : -V -8 -T "artist=%a" -T "title=%t" -T "album=%g" -T "date=%y" -T "tracknumber=%n" -T "genre=%m" %s
Other options :
Fill up missing offset samples with silence : Yes
Delete leading and trailing silent blocks : No
Installed external ASPI interface
Track 1
Filename C:\stuff\music\rips\Eddie Kendricks - Keep On Truckin The Motown Solo Albums Vol 1 (2005) [FLAC] {hip-o select}\CD1\01 Let's Go Back To Day One.wav
Pre-gap length 0:00:02.00
Peak level 100.0 %
Track quality 100.0 %
Test CRC DCAA2FED
Copy CRC DCAA2FED
Copy OK
Track 2
Filename C:\stuff\music\rips\Eddie Kendricks - Keep On Truckin The Motown Solo Albums Vol 1 (2005) [FLAC] {hip-o select}\CD1\02 This Used To Be The Home Of Johnnie Mae.wav
Pre-gap length 0:00:02.57
Peak level 100.0 %
Track quality 100.0 %
Test CRC 32B4C45F
Copy CRC 32B4C45F
Copy OK
Track 3
Filename C:\stuff\music\rips\Eddie Kendricks - Keep On Truckin The Motown Solo Albums Vol 1 (2005) [FLAC] {hip-o select}\CD1\03 I Did It All For You.wav
Pre-gap length 0:00:02.57
Peak level 99.4 %
Track quality 100.0 %
Test CRC 1C182F0E
Copy CRC 1C182F0E
Copy OK
Track 4
Filename C:\stuff\music\rips\Eddie Kendricks - Keep On Truckin The Motown Solo Albums Vol 1 (2005) [FLAC] {hip-o select}\CD1\04 It's So Hard To Say Goodbye.wav
Pre-gap length 0:00:02.57
Peak level 99.4 %
Track quality 100.0 %
Test CRC 78914F7D
Copy CRC 78914F7D
Copy OK
Track 5
Filename C:\stuff\music\rips\Eddie Kendricks - Keep On Truckin The Motown Solo Albums Vol 1 (2005) [FLAC] {hip-o select}\CD1\05 Something's Burning.wav
Pre-gap length 0:00:02.58
Peak level 99.4 %
Track quality 100.0 %
Test CRC 86C3DA5D
Copy CRC 86C3DA5D
Copy OK
Track 6
Filename C:\stuff\music\rips\Eddie Kendricks - Keep On Truckin The Motown Solo Albums Vol 1 (2005) [FLAC] {hip-o select}\CD1\06 Can I.wav
Pre-gap length 0:00:02.57
Peak level 100.0 %
Track quality 100.0 %
Test CRC 4427908A
Copy CRC 4427908A
Copy OK
Track 7
Filename C:\stuff\music\rips\Eddie Kendricks - Keep On Truckin The Motown Solo Albums Vol 1 (2005) [FLAC] {hip-o select}\CD1\07 Didn't We.wav
Pre-gap length 0:00:02.56
Peak level 99.4 %
Track quality 100.0 %
Test CRC A366A098
Copy CRC A366A098
Copy OK
Track 8
Filename C:\stuff\music\rips\Eddie Kendricks - Keep On Truckin The Motown Solo Albums Vol 1 (2005) [FLAC] {hip-o select}\CD1\08 If You Let Me.wav
Pre-gap length 0:00:02.56
Peak level 100.0 %
Track quality 100.0 %
Test CRC 7C559B0B
Copy CRC 7C559B0B
Copy OK
Track 9
Filename C:\stuff\music\rips\Eddie Kendricks - Keep On Truckin The Motown Solo Albums Vol 1 (2005) [FLAC] {hip-o select}\CD1\09 Let Me Run Into Your Lonely Heart.wav
Pre-gap length 0:00:03.92
Peak level 100.0 %
Track quality 100.0 %
Test CRC 62536969
Copy CRC 62536969
Copy OK
Track 10
Filename C:\stuff\music\rips\Eddie Kendricks - Keep On Truckin The Motown Solo Albums Vol 1 (2005) [FLAC] {hip-o select}\CD1\10 Day By Day.wav
Pre-gap length 0:00:02.62
Peak level 100.0 %
Track quality 100.0 %
Test CRC A93E316D
Copy CRC A93E316D
Copy OK
Track 11
Filename C:\stuff\music\rips\Eddie Kendricks - Keep On Truckin The Motown Solo Albums Vol 1 (2005) [FLAC] {hip-o select}\CD1\11 Girl You Need a Change of Mind.wav
Pre-gap length 0:00:02.57
Peak level 100.0 %
Track quality 100.0 %
Test CRC A85C0226
Copy CRC A85C0226
Copy OK
Track 12
Filename C:\stuff\music\rips\Eddie Kendricks - Keep On Truckin The Motown Solo Albums Vol 1 (2005) [FLAC] {hip-o select}\CD1\12 Someday We'll Have a Better World.wav
Pre-gap length 0:00:02.56
Peak level 100.0 %
Track quality 99.9 %
Test CRC F4A47CC8
Copy CRC F4A47CC8
Copy OK
Track 13
Filename C:\stuff\music\rips\Eddie Kendricks - Keep On Truckin The Motown Solo Albums Vol 1 (2005) [FLAC] {hip-o select}\CD1\13 My People ... Hold On.wav
Pre-gap length 0:00:02.57
Peak level 100.0 %
Track quality 100.0 %
Test CRC 6F5372C7
Copy CRC 6F5372C7
Copy OK
Track 14
Filename C:\stuff\music\rips\Eddie Kendricks - Keep On Truckin The Motown Solo Albums Vol 1 (2005) [FLAC] {hip-o select}\CD1\14 Date With The Rain.wav
Pre-gap length 0:00:01.72
Peak level 100.0 %
Track quality 99.9 %
Test CRC 8BE236AA
Copy CRC 8BE236AA
Copy OK
Track 15
Filename C:\stuff\music\rips\Eddie Kendricks - Keep On Truckin The Motown Solo Albums Vol 1 (2005) [FLAC] {hip-o select}\CD1\15 Eddie's Love.wav
Pre-gap length 0:00:02.61
Peak level 100.0 %
Track quality 100.0 %
Test CRC 266909D4
Copy CRC 266909D4
Copy OK
Track 16
Filename C:\stuff\music\rips\Eddie Kendricks - Keep On Truckin The Motown Solo Albums Vol 1 (2005) [FLAC] {hip-o select}\CD1\16 I'm On The Sideline.wav
Pre-gap length 0:00:03.16
Peak level 99.7 %
Track quality 100.0 %
Test CRC A4F7E5C1
Copy CRC A4F7E5C1
Copy OK
Track 17
Filename C:\stuff\music\rips\Eddie Kendricks - Keep On Truckin The Motown Solo Albums Vol 1 (2005) [FLAC] {hip-o select}\CD1\17 Just Memories.wav
Pre-gap length 0:00:04.60
Peak level 100.0 %
Track quality 100.0 %
Test CRC 198A80E0
Copy CRC 198A80E0
Copy OK
No errors occured
End of status report
 
Содержание индексной карты (.CUE)
REM GENRE Soul
REM DATE 2005
REM DISCID 2210E211
REM COMMENT "ExactAudioCopy v0.95b4"
CATALOG 0602498837030
PERFORMER "Eddie Kendricks"
TITLE "Keep On Truckin': The Motown Solo Albums, Vol. 1 - CD 1"
FILE "01 Let's Go Back To Day One.wav" WAVE
TRACK 01 AUDIO
TITLE "Let's Go Back To Day One"
PERFORMER "Eddie Kendricks"
ISRC USUM70501533
INDEX 01 00:00:00
TRACK 02 AUDIO
TITLE "This Used To Be The Home Of Johnnie Mae"
PERFORMER "Eddie Kendricks"
ISRC USMO17182653
INDEX 00 03:32:04
FILE "02 This Used To Be The Home Of Johnnie Mae.wav" WAVE
INDEX 01 00:00:00
TRACK 03 AUDIO
TITLE "I Did It All For You"
PERFORMER "Eddie Kendricks"
ISRC USUM70501529
INDEX 00 05:47:57
FILE "03 I Did It All For You.wav" WAVE
INDEX 01 00:00:00
TRACK 04 AUDIO
TITLE "It's So Hard To Say Goodbye"
PERFORMER "Eddie Kendricks"
ISRC USMO17182654
INDEX 00 03:08:04
FILE "04 It's So Hard To Say Goodbye.wav" WAVE
INDEX 01 00:00:00
TRACK 05 AUDIO
TITLE "Something's Burning"
PERFORMER "Eddie Kendricks"
ISRC USUM70501535
INDEX 00 03:09:19
FILE "05 Something's Burning.wav" WAVE
INDEX 01 00:00:00
TRACK 06 AUDIO
TITLE "Can I"
PERFORMER "Eddie Kendricks"
ISRC USMO17182655
INDEX 00 04:27:57
FILE "06 Can I.wav" WAVE
INDEX 01 00:00:00
TRACK 07 AUDIO
TITLE "Didn't We"
PERFORMER "Eddie Kendricks"
ISRC USUM70501528
INDEX 00 06:12:40
FILE "07 Didn't We.wav" WAVE
INDEX 01 00:00:00
TRACK 08 AUDIO
TITLE "If You Let Me"
PERFORMER "Eddie Kendricks"
ISRC USMO17282690
INDEX 00 03:09:06
FILE "08 If You Let Me.wav" WAVE
INDEX 01 00:00:00
TRACK 09 AUDIO
TITLE "Let Me Run Into Your Lonely Heart"
PERFORMER "Eddie Kendricks"
ISRC USUM70501537
INDEX 00 03:22:05
FILE "09 Let Me Run Into Your Lonely Heart.wav" WAVE
INDEX 01 00:00:00
TRACK 10 AUDIO
TITLE "Day By Day"
PERFORMER "Eddie Kendricks"
ISRC USUM70501538
INDEX 00 03:11:17
FILE "10 Day By Day.wav" WAVE
INDEX 01 00:00:00
TRACK 11 AUDIO
TITLE "Girl You Need a Change of Mind"
PERFORMER "Eddie Kendricks"
ISRC USMO17384642
INDEX 00 03:17:09
FILE "11 Girl You Need a Change of Mind.wav" WAVE
INDEX 01 00:00:00
TRACK 12 AUDIO
TITLE "Someday We'll Have a Better World"
PERFORMER "Eddie Kendricks"
ISRC USUM70501539
INDEX 00 07:42:63
FILE "12 Someday We'll Have a Better World.wav" WAVE
INDEX 01 00:00:00
TRACK 13 AUDIO
TITLE "My People ... Hold On"
PERFORMER "Eddie Kendricks"
ISRC USMO10400176
INDEX 00 03:43:17
FILE "13 My People ... Hold On.wav" WAVE
INDEX 01 00:00:00
TRACK 14 AUDIO
TITLE "Date With The Rain"
PERFORMER "Eddie Kendricks"
ISRC USMO17782766
INDEX 00 05:38:68
FILE "14 Date With The Rain.wav" WAVE
INDEX 01 00:00:00
TRACK 15 AUDIO
TITLE "Eddie's Love"
PERFORMER "Eddie Kendricks"
ISRC USMO17382767
INDEX 00 02:41:29
FILE "15 Eddie's Love.wav" WAVE
INDEX 01 00:00:00
TRACK 16 AUDIO
TITLE "I'm On The Sideline"
PERFORMER "Eddie Kendricks"
ISRC USMO10300838
INDEX 00 03:29:60
FILE "16 I'm On The Sideline.wav" WAVE
INDEX 01 00:00:00
TRACK 17 AUDIO
TITLE "Just Memories"
PERFORMER "Eddie Kendricks"
ISRC USMO10200084
INDEX 00 02:53:36
FILE "17 Just Memories.wav" WAVE
INDEX 01 00:00:00
 
Лог проверки качества
AUDIOCHECKER v2.0 beta (build 457) - by Dester - opdester@freemail.hu
~~~~~~~~~~~~~~~~~~~~~~~~~~~~~~~~~~
Started at: среда, 08. 04. 2015. - 11:39.04
17 files found
01 -===- L:\Kendricks, Eddie\(2005) Keep On Truckin - The Motown Solo Albums, Vol. 1\CD 1\01 Let's Go Back To Day One.flac
Extracted successfully
Conclusion: this track is CDDA with probability 100%
Tempfile successfully deleted.
02 -===- L:\Kendricks, Eddie\(2005) Keep On Truckin - The Motown Solo Albums, Vol. 1\CD 1\02 This Used To Be The Home Of Johnnie Mae.flac
Extracted successfully
Conclusion: this track is CDDA with probability 100%
Tempfile successfully deleted.
03 -===- L:\Kendricks, Eddie\(2005) Keep On Truckin - The Motown Solo Albums, Vol. 1\CD 1\03 I Did It All For You.flac
Extracted successfully
Conclusion: this track is CDDA with probability 100%
Tempfile successfully deleted.
04 -===- L:\Kendricks, Eddie\(2005) Keep On Truckin - The Motown Solo Albums, Vol. 1\CD 1\04 It's So Hard To Say Goodbye.flac
Extracted successfully
Conclusion: this track is CDDA with probability 100%
Tempfile successfully deleted.
05 -===- L:\Kendricks, Eddie\(2005) Keep On Truckin - The Motown Solo Albums, Vol. 1\CD 1\05 Something's Burning.flac
Extracted successfully
Conclusion: this track is CDDA with probability 100%
Tempfile successfully deleted.
06 -===- L:\Kendricks, Eddie\(2005) Keep On Truckin - The Motown Solo Albums, Vol. 1\CD 1\06 Can I.flac
Extracted successfully
Conclusion: this track is CDDA with probability 100%
Tempfile successfully deleted.
07 -===- L:\Kendricks, Eddie\(2005) Keep On Truckin - The Motown Solo Albums, Vol. 1\CD 1\07 Didn't We.flac
Extracted successfully
Conclusion: this track is CDDA with probability 100%
Tempfile successfully deleted.
08 -===- L:\Kendricks, Eddie\(2005) Keep On Truckin - The Motown Solo Albums, Vol. 1\CD 1\08 If You Let Me.flac
Extracted successfully
Conclusion: this track is CDDA with probability 100%
Tempfile successfully deleted.
09 -===- L:\Kendricks, Eddie\(2005) Keep On Truckin - The Motown Solo Albums, Vol. 1\CD 1\09 Let Me Run Into Your Lonely Heart.flac
Extracted successfully
Conclusion: this track is CDDA with probability 100%
Tempfile successfully deleted.
10 -===- L:\Kendricks, Eddie\(2005) Keep On Truckin - The Motown Solo Albums, Vol. 1\CD 1\10 Day By Day.flac
Extracted successfully
Conclusion: this track is CDDA with probability 100%
Tempfile successfully deleted.
11 -===- L:\Kendricks, Eddie\(2005) Keep On Truckin - The Motown Solo Albums, Vol. 1\CD 1\11 Girl You Need a Change of Mind.flac
Extracted successfully
Conclusion: this track is CDDA with probability 100%
Tempfile successfully deleted.
12 -===- L:\Kendricks, Eddie\(2005) Keep On Truckin - The Motown Solo Albums, Vol. 1\CD 1\12 Someday We'll Have a Better World.flac
Extracted successfully
Conclusion: this track is CDDA with probability 100%
Tempfile successfully deleted.
13 -===- L:\Kendricks, Eddie\(2005) Keep On Truckin - The Motown Solo Albums, Vol. 1\CD 1\13 My People ... Hold On.flac
Extracted successfully
Conclusion: this track is CDDA with probability 99%
Tempfile successfully deleted.
14 -===- L:\Kendricks, Eddie\(2005) Keep On Truckin - The Motown Solo Albums, Vol. 1\CD 1\14 Date With The Rain.flac
Extracted successfully
Conclusion: this track is CDDA with probability 100%
Tempfile successfully deleted.
15 -===- L:\Kendricks, Eddie\(2005) Keep On Truckin - The Motown Solo Albums, Vol. 1\CD 1\15 Eddie's Love.flac
Extracted successfully
Conclusion: this track is CDDA with probability 100%
Tempfile successfully deleted.
16 -===- L:\Kendricks, Eddie\(2005) Keep On Truckin - The Motown Solo Albums, Vol. 1\CD 1\16 I'm On The Sideline.flac
Extracted successfully
Conclusion: this track is CDDA with probability 100%
Tempfile successfully deleted.
17 -===- L:\Kendricks, Eddie\(2005) Keep On Truckin - The Motown Solo Albums, Vol. 1\CD 1\17 Just Memories.flac
Extracted successfully
Conclusion: this track is CDDA with probability 100%
Tempfile successfully deleted.
Finished at: среда, 08. 04. 2015. - 11:44.06 (operation time: 0:05.02)
 
CD 2
 
Лог создания рипа
EAC extraction logfile from 7. January 2008, 6:29 for CD
Eddie Kendricks / Keep On Truckin': The Motown Solo Albums, Vol 1 - CD2
Used drive : SAMSUNG CD-ROM SC-148A Adapter: 1 ID: 0
Read mode : Secure with NO C2, accurate stream, disable cache
Read offset correction : 12
Overread into Lead-In and Lead-Out : No
Used output format : C:\FLAC\flac.exe (User Defined Encoder)
160 kBit/s
Additional command line options : -V -8 -T "artist=%a" -T "title=%t" -T "album=%g" -T "date=%y" -T "tracknumber=%n" -T "genre=%m" %s
Other options :
Fill up missing offset samples with silence : Yes
Delete leading and trailing silent blocks : No
Installed external ASPI interface
Track 1
Filename C:\stuff\music\rips\Eddie Kendricks - Keep On Truckin The Motown Solo Albums Vol 1 (2005) [FLAC] {hip-o select}\CD2\01 Only Room For Two.wav
Pre-gap length 0:00:02.00
Peak level 88.5 %
Track quality 100.0 %
Test CRC 573288AF
Copy CRC 573288AF
Copy OK
Track 2
Filename C:\stuff\music\rips\Eddie Kendricks - Keep On Truckin The Motown Solo Albums Vol 1 (2005) [FLAC] {hip-o select}\CD2\02 Darling Come Back Home.wav
Pre-gap length 0:00:02.57
Peak level 98.5 %
Track quality 99.9 %
Test CRC 56222348
Copy CRC 56222348
Copy OK
Track 3
Filename C:\stuff\music\rips\Eddie Kendricks - Keep On Truckin The Motown Solo Albums Vol 1 (2005) [FLAC] {hip-o select}\CD2\03 Each Day I Cry A Little.wav
Pre-gap length 0:00:02.08
Peak level 97.6 %
Track quality 100.0 %
Test CRC 0CEE9E3A
Copy CRC 0CEE9E3A
Copy OK
Track 4
Filename C:\stuff\music\rips\Eddie Kendricks - Keep On Truckin The Motown Solo Albums Vol 1 (2005) [FLAC] {hip-o select}\CD2\04 Can't Help What I Am.wav
Pre-gap length 0:00:02.58
Peak level 88.5 %
Track quality 99.9 %
Test CRC AEAD0A5E
Copy CRC AEAD0A5E
Copy OK
Track 5
Filename C:\stuff\music\rips\Eddie Kendricks - Keep On Truckin The Motown Solo Albums Vol 1 (2005) [FLAC] {hip-o select}\CD2\05 Keep On Truckin'.wav
Pre-gap length 0:00:02.57
Peak level 99.4 %
Track quality 100.0 %
Test CRC 190BFDB4
Copy CRC 190BFDB4
Copy OK
Track 6
Filename C:\stuff\music\rips\Eddie Kendricks - Keep On Truckin The Motown Solo Albums Vol 1 (2005) [FLAC] {hip-o select}\CD2\06 Any Day Now.wav
Pre-gap length 0:00:02.20
Peak level 99.4 %
Track quality 100.0 %
Test CRC 159FD906
Copy CRC 159FD906
Copy OK
Track 7
Filename C:\stuff\music\rips\Eddie Kendricks - Keep On Truckin The Motown Solo Albums Vol 1 (2005) [FLAC] {hip-o select}\CD2\07 Not On The Outside.wav
Pre-gap length 0:00:01.32
Peak level 95.7 %
Track quality 100.0 %
Test CRC 0AC12767
Copy CRC 0AC12767
Copy OK
Track 8
Filename C:\stuff\music\rips\Eddie Kendricks - Keep On Truckin The Motown Solo Albums Vol 1 (2005) [FLAC] {hip-o select}\CD2\08 Where Do You Go (Baby).wav
Peak level 99.9 %
Track quality 100.0 %
Test CRC F61178FA
Copy CRC F61178FA
Copy OK
Track 9
Filename C:\stuff\music\rips\Eddie Kendricks - Keep On Truckin The Motown Solo Albums Vol 1 (2005) [FLAC] {hip-o select}\CD2\09 Please Don't Go Away.wav
Pre-gap length 0:00:02.57
Peak level 100.0 %
Track quality 100.0 %
Test CRC 657A40CA
Copy CRC 657A40CA
Copy OK
Track 10
Filename C:\stuff\music\rips\Eddie Kendricks - Keep On Truckin The Motown Solo Albums Vol 1 (2005) [FLAC] {hip-o select}\CD2\10 One Tear.wav
Pre-gap length 0:00:02.57
Peak level 100.0 %
Track quality 100.0 %
Test CRC 39D48C4C
Copy CRC 39D48C4C
Copy OK
Track 11
Filename C:\stuff\music\rips\Eddie Kendricks - Keep On Truckin The Motown Solo Albums Vol 1 (2005) [FLAC] {hip-o select}\CD2\11 Shoeshine Boy.wav
Pre-gap length 0:00:02.57
Peak level 94.3 %
Track quality 100.0 %
Test CRC 5FD997C2
Copy CRC 5FD997C2
Copy OK
Track 12
Filename C:\stuff\music\rips\Eddie Kendricks - Keep On Truckin The Motown Solo Albums Vol 1 (2005) [FLAC] {hip-o select}\CD2\12 Deep And Quiet Love.wav
Pre-gap length 0:00:02.10
Peak level 96.4 %
Track quality 100.0 %
Test CRC 66AEBD3A
Copy CRC 66AEBD3A
Copy OK
Track 13
Filename C:\stuff\music\rips\Eddie Kendricks - Keep On Truckin The Motown Solo Albums Vol 1 (2005) [FLAC] {hip-o select}\CD2\13 Let Yourself Go.wav
Pre-gap length 0:00:02.56
Peak level 89.0 %
Track quality 100.0 %
Test CRC 18A9FC0D
Copy CRC 18A9FC0D
Copy OK
Track 14
Filename C:\stuff\music\rips\Eddie Kendricks - Keep On Truckin The Motown Solo Albums Vol 1 (2005) [FLAC] {hip-o select}\CD2\14 If.wav
Pre-gap length 0:00:01.94
Peak level 99.9 %
Track quality 100.0 %
Test CRC 42B59E96
Copy CRC 42B59E96
Copy OK
Track 15
Filename C:\stuff\music\rips\Eddie Kendricks - Keep On Truckin The Motown Solo Albums Vol 1 (2005) [FLAC] {hip-o select}\CD2\15 If You Think (You Can).wav
Pre-gap length 0:00:02.74
Peak level 100.0 %
Track quality 100.0 %
Test CRC 7726785B
Copy CRC 7726785B
Copy OK
Track 16
Filename C:\stuff\music\rips\Eddie Kendricks - Keep On Truckin The Motown Solo Albums Vol 1 (2005) [FLAC] {hip-o select}\CD2\16 Time In A Bottle.wav
Pre-gap length 0:00:02.30
Peak level 99.9 %
Track quality 100.0 %
Test CRC 46D18BB4
Copy CRC 46D18BB4
Copy OK
No errors occured
End of status report
 
Содержание индексной карты (.CUE)
REM GENRE Soul
REM DATE 2005
REM DISCID F2116410
REM COMMENT "ExactAudioCopy v0.95b4"
CATALOG 0602498837047
PERFORMER "Eddie Kendricks"
TITLE "Keep On Truckin': The Motown Solo Albums, Vol 1 - CD2"
FILE "01 Only Room For Two.wav" WAVE
TRACK 01 AUDIO
TITLE "Only Room For Two"
PERFORMER "Eddie Kendricks"
ISRC USMO10400667
INDEX 01 00:00:00
TRACK 02 AUDIO
TITLE "Darling Come Back Home"
PERFORMER "Eddie Kendricks"
ISRC USMO17384735
INDEX 00 03:09:71
FILE "02 Darling Come Back Home.wav" WAVE
INDEX 01 00:00:00
TRACK 03 AUDIO
TITLE "Each Day I Cry A Little"
PERFORMER "Eddie Kendricks"
ISRC USMO10400668
INDEX 00 04:13:20
FILE "03 Each Day I Cry A Little.wav" WAVE
INDEX 01 00:00:00
TRACK 04 AUDIO
TITLE "Can't Help What I Am"
PERFORMER "Eddie Kendricks"
ISRC USMO10400669
INDEX 00 07:19:69
FILE "04 Can't Help What I Am.wav" WAVE
INDEX 01 00:00:00
TRACK 05 AUDIO
TITLE "Keep On Truckin'"
PERFORMER "Eddie Kendricks"
ISRC USMO17384645
INDEX 00 04:23:54
FILE "05 Keep On Truckin'.wav" WAVE
INDEX 01 00:00:00
TRACK 06 AUDIO
TITLE "Any Day Now"
PERFORMER "Eddie Kendricks"
ISRC USMO10400670
INDEX 00 07:59:31
FILE "06 Any Day Now.wav" WAVE
INDEX 01 00:00:00
TRACK 07 AUDIO
TITLE "Not On The Outside"
PERFORMER "Eddie Kendricks"
ISRC USMO10400671
INDEX 00 05:08:27
FILE "07 Not On The Outside.wav" WAVE
INDEX 01 00:00:00
FILE "08 Where Do You Go (Baby).wav" WAVE
TRACK 08 AUDIO
TITLE "Where Do You Go (Baby)"
PERFORMER "Eddie Kendricks"
ISRC USMO10400672
INDEX 01 00:00:00
TRACK 09 AUDIO
TITLE "Please Don't Go Away"
PERFORMER "Eddie Kendricks"
ISRC USUM70501534
INDEX 00 03:22:60
FILE "09 Please Don't Go Away.wav" WAVE
INDEX 01 00:00:00
TRACK 10 AUDIO
TITLE "One Tear"
PERFORMER "Eddie Kendricks"
ISRC USMO10000805
INDEX 00 04:47:32
FILE "10 One Tear.wav" WAVE
INDEX 01 00:00:00
TRACK 11 AUDIO
TITLE "Shoeshine Boy"
PERFORMER "Eddie Kendricks"
ISRC USMO17484739
INDEX 00 04:05:49
FILE "11 Shoeshine Boy.wav" WAVE
INDEX 01 00:00:00
TRACK 12 AUDIO
TITLE "Deep And Quiet Love"
PERFORMER "Eddie Kendricks"
ISRC USUM70501527
INDEX 00 03:15:37
FILE "12 Deep And Quiet Love.wav" WAVE
INDEX 01 00:00:00
TRACK 13 AUDIO
TITLE "Let Yourself Go"
PERFORMER "Eddie Kendricks"
ISRC USUM70501532
INDEX 00 05:30:58
FILE "13 Let Yourself Go.wav" WAVE
INDEX 01 00:00:00
TRACK 14 AUDIO
TITLE "If"
PERFORMER "Eddie Kendricks"
ISRC USUM70501530
INDEX 00 05:43:47
FILE "14 If.wav" WAVE
INDEX 01 00:00:00
TRACK 15 AUDIO
TITLE "If You Think (You Can)"
PERFORMER "Eddie Kendricks"
ISRC USUM70501531
INDEX 00 03:10:43
FILE "15 If You Think (You Can).wav" WAVE
INDEX 01 00:00:00
TRACK 16 AUDIO
TITLE "Time In A Bottle"
PERFORMER "Eddie Kendricks"
ISRC USUM70501536
INDEX 00 03:58:40
FILE "16 Time In A Bottle.wav" WAVE
INDEX 01 00:00:00
 
Лог проверки качества
AUDIOCHECKER v2.0 beta (build 457) - by Dester - opdester@freemail.hu
~~~~~~~~~~~~~~~~~~~~~~~~~~~~~~~~~~
Started at: среда, 08. 04. 2015. - 11:45.02
16 files found
01 -===- L:\Kendricks, Eddie\(2005) Keep On Truckin - The Motown Solo Albums, Vol. 1\CD 2\01 Only Room For Two.flac
Extracted successfully
Conclusion: this track is CDDA with probability 100%
Tempfile successfully deleted.
02 -===- L:\Kendricks, Eddie\(2005) Keep On Truckin - The Motown Solo Albums, Vol. 1\CD 2\02 Darling Come Back Home.flac
Extracted successfully
Conclusion: this track is CDDA with probability 100%
Tempfile successfully deleted.
03 -===- L:\Kendricks, Eddie\(2005) Keep On Truckin - The Motown Solo Albums, Vol. 1\CD 2\03 Each Day I Cry A Little.flac
Extracted successfully
Conclusion: this track is CDDA with probability 100%
Tempfile successfully deleted.
04 -===- L:\Kendricks, Eddie\(2005) Keep On Truckin - The Motown Solo Albums, Vol. 1\CD 2\04 Can't Help What I Am.flac
Extracted successfully
Conclusion: this track is CDDA with probability 100%
Tempfile successfully deleted.
05 -===- L:\Kendricks, Eddie\(2005) Keep On Truckin - The Motown Solo Albums, Vol. 1\CD 2\05 Keep On Truckin'.flac
Extracted successfully
Conclusion: this track is CDDA with probability 100%
Tempfile successfully deleted.
06 -===- L:\Kendricks, Eddie\(2005) Keep On Truckin - The Motown Solo Albums, Vol. 1\CD 2\06 Any Day Now.flac
Extracted successfully
Conclusion: this track is CDDA with probability 100%
Tempfile successfully deleted.
07 -===- L:\Kendricks, Eddie\(2005) Keep On Truckin - The Motown Solo Albums, Vol. 1\CD 2\07 Not On The Outside.flac
Extracted successfully
Conclusion: this track is CDDA with probability 100%
Tempfile successfully deleted.
08 -===- L:\Kendricks, Eddie\(2005) Keep On Truckin - The Motown Solo Albums, Vol. 1\CD 2\08 Where Do You Go (Baby).flac
Extracted successfully
Conclusion: this track is CDDA with probability 100%
Tempfile successfully deleted.
09 -===- L:\Kendricks, Eddie\(2005) Keep On Truckin - The Motown Solo Albums, Vol. 1\CD 2\09 Please Don't Go Away.flac
Extracted successfully
Conclusion: this track is CDDA with probability 100%
Tempfile successfully deleted.
10 -===- L:\Kendricks, Eddie\(2005) Keep On Truckin - The Motown Solo Albums, Vol. 1\CD 2\10 One Tear.flac
Extracted successfully
Conclusion: this track is CDDA with probability 100%
Tempfile successfully deleted.
11 -===- L:\Kendricks, Eddie\(2005) Keep On Truckin - The Motown Solo Albums, Vol. 1\CD 2\11 Shoeshine Boy.flac
Extracted successfully
Conclusion: this track is CDDA with probability 100%
Tempfile successfully deleted.
12 -===- L:\Kendricks, Eddie\(2005) Keep On Truckin - The Motown Solo Albums, Vol. 1\CD 2\12 Deep And Quiet Love.flac
Extracted successfully
Conclusion: this track is CDDA with probability 100%
Tempfile successfully deleted.
13 -===- L:\Kendricks, Eddie\(2005) Keep On Truckin - The Motown Solo Albums, Vol. 1\CD 2\13 Let Yourself Go.flac
Extracted successfully
Conclusion: this track is CDDA with probability 100%
Tempfile successfully deleted.
14 -===- L:\Kendricks, Eddie\(2005) Keep On Truckin - The Motown Solo Albums, Vol. 1\CD 2\14 If.flac
Extracted successfully
Conclusion: this track is CDDA with probability 100%
Tempfile successfully deleted.
15 -===- L:\Kendricks, Eddie\(2005) Keep On Truckin - The Motown Solo Albums, Vol. 1\CD 2\15 If You Think (You Can).flac
Extracted successfully
Conclusion: this track is CDDA with probability 100%
Tempfile successfully deleted.
16 -===- L:\Kendricks, Eddie\(2005) Keep On Truckin - The Motown Solo Albums, Vol. 1\CD 2\16 Time In A Bottle.flac
Extracted successfully
Conclusion: this track is CDDA with probability 100%
Tempfile successfully deleted.
Finished at: среда, 08. 04. 2015. - 11:50.10 (operation time: 0:05.08)
Приватный:
Нет (DHT включён)
Размер:
1.06 Гб (1,133,552,810 байт) » файлов: 65
Участники:
0 раздают, 0 качают (0 участников всего)
Внешние участники:
3 раздают, 1 качают (4 участников всего) [ Обновить ]
No seeders - write a personal message to user M0p94ok. Нет сидеров - пишите личное сообщение пользователю M0p94ok.
05:11
93
Нет комментариев. Ваш будет первым!