Поиск

(Soul) [CD] Eddie Kendricks - The Thin Man: The Motown Solo Albums, Vol. 2 - 2006, FLAC (tracks+.cue), lossless

(Soul) [CD] Eddie Kendricks - The Thin Man: The Motown Solo Albums, Vol. 2 - 2006, FLAC (tracks+.cue), lossless
Треклист:
Eddie Kendricks / The Thin Man: The Motown Solo Albums, Vol. 2
Жанр: Soul
Носитель: CD
Страна-производитель диска (релиза): USA
Год издания: 2006
Издатель (лейбл): Hip-O Select
Номер по каталогу: B0007397-02
Страна исполнителя (группы): USA
Аудиокодек: FLAC (*.flac)
Тип рипа: tracks+.cue
Битрейт аудио: lossless
Продолжительность: 3:52:32
Источник (релизер): MixSan
Наличие сканов в содержимом раздачи: да
Allmusic.com:
Треклист:
 
CD 1 - Boogie Down! (1974) & The Hit Man (1975)
01. The Thin Man (03:37)
02. Tell Her Love Has Felt The Need (04:28)
03. Son Of Sagittarius (03:38)
04. Boogie Down (07:02)
05. Hooked On Your Love (03:19)
06. Honey Brown (05:10)
07. You Are The Melody Of My Life (04:00)
08. Trust Your Heart (04:14)
09. Girl Of My Dreams (03:27)
10. Loving You The Second Time Around (03:11)
11. If Anyone Can (03:26)
12. Happy (05:16)
13. Get The Cream Off The Top (03:09)
14. Body Talk (06:46)
15. Fortune Teller (03:36)
16. Skippin' Work Today (04:39)
17. You Loved Me Then (02:35)
18. I've Got to Be (07:54)
 
CD 2 - He's A Friend (1975) & Goin' Up In Smoke (1976)
01. He's A Friend (04:47)
02. A Part Of Me (03:21)
03. I Won't Take No (02:59)
04. Never Gonna Leave You (04:13)
05. Get It While It's Hot (03:12)
06. Chains (03:27)
07. The Sweeter You Treat Her (04:57)
08. It's Not What You Got (04:12)
09. On My Way Home (02:52)
10. All Of My Love (02:49)
11. Goin' Up In Smoke (04:32)
12. The Newness Is Gone (05:12)
13. Sweet Tenderoni (04:18)
14. Born Again (03:31)
15. Don't You Want Light (03:51)
16. Music Man (05:35)
17. Thanks For The Memories (05:28)
18. To You From Me (03:06)
19. Don't Put Off Till Tomorrow (03:58)
20. Skeleton In Your Closet (02:33)
 
CD 3 - Slick (1977) & Bonus Tracks: Motown Lost & Found
01. Something Shady (Is Going On) (06:17)
02. Baby (03:58)
03. I Want To Live (My Life With You) (04:45)
04. You Got It (03:32)
05. Intimate Friends (05:56)
06. Diamond Girl (05:28)
07. Then Came You (07:44)
08. I'll Have To Let You Go (05:07)
09. California Woman (03:34)
10. Let Now Be Now, Let Love Be Love (03:51)
11. I Need You More Now Than Ever (03:49)
12. That's All Behind You (03:52)
13. Go On With Your Bad Self (02:32)
14. Johnny Faraway (03:26)
15. If I Can't Love You Then I Can't Love Me (03:20)
16. Nothing Is Real (02:39)
17. I'll Be Your Servant (03:53)
 
Logs & CUE
 
CD 1
 
Лог создания рипа
EAC extraction logfile from 15. January 2008, 7:33 for CD
Eddie Kendricks / The Thin Man The Motown Solo Albums, Vol 2 - CD1
Used drive : SAMSUNG CD-ROM SC-148A Adapter: 1 ID: 0
Read mode : Secure with NO C2, accurate stream, disable cache
Read offset correction : 12
Overread into Lead-In and Lead-Out : No
Used output format : C:\FLAC\flac.exe (User Defined Encoder)
160 kBit/s
Additional command line options : -V -8 -T "artist=%a" -T "title=%t" -T "album=%g" -T "date=%y" -T "tracknumber=%n" -T "genre=%m" %s
Other options :
Fill up missing offset samples with silence : Yes
Delete leading and trailing silent blocks : No
Installed external ASPI interface
Track 1
Filename C:\stuff\music\rips\Eddie Kendricks - The Thin Man The Motown Solo Albums Vol 2 (2006)\CD1\01 The Thin Man.wav
Pre-gap length 0:00:02.00
Peak level 100.0 %
Track quality 99.9 %
Test CRC 4F8DE421
Copy CRC 4F8DE421
Copy OK
Track 2
Filename C:\stuff\music\rips\Eddie Kendricks - The Thin Man The Motown Solo Albums Vol 2 (2006)\CD1\02 Tell Her Love Has Felt The Need.wav
Pre-gap length 0:00:01.53
Peak level 100.0 %
Track quality 100.0 %
Test CRC 1C0930B4
Copy CRC 1C0930B4
Copy OK
Track 3
Filename C:\stuff\music\rips\Eddie Kendricks - The Thin Man The Motown Solo Albums Vol 2 (2006)\CD1\03 Son Of Sagittarius.wav
Pre-gap length 0:00:03.04
Peak level 100.0 %
Track quality 100.0 %
Test CRC FC60DC0B
Copy CRC FC60DC0B
Copy OK
Track 4
Filename C:\stuff\music\rips\Eddie Kendricks - The Thin Man The Motown Solo Albums Vol 2 (2006)\CD1\04 Boogie Down.wav
Pre-gap length 0:00:02.69
Peak level 100.0 %
Track quality 100.0 %
Test CRC AA376D76
Copy CRC AA376D76
Copy OK
Track 5
Filename C:\stuff\music\rips\Eddie Kendricks - The Thin Man The Motown Solo Albums Vol 2 (2006)\CD1\05 Hooked On Your Love.wav
Pre-gap length 0:00:03.10
Peak level 98.7 %
Track quality 100.0 %
Test CRC 500EC359
Copy CRC 500EC359
Copy OK
Track 6
Filename C:\stuff\music\rips\Eddie Kendricks - The Thin Man The Motown Solo Albums Vol 2 (2006)\CD1\06 Honey Brown.wav
Pre-gap length 0:00:02.98
Peak level 100.0 %
Track quality 99.9 %
Test CRC 9D315709
Copy CRC 9D315709
Copy OK
Track 7
Filename C:\stuff\music\rips\Eddie Kendricks - The Thin Man The Motown Solo Albums Vol 2 (2006)\CD1\07 You Are The Melody Of My Life.wav
Pre-gap length 0:00:01.57
Peak level 100.0 %
Track quality 100.0 %
Test CRC 6599D3DA
Copy CRC 6599D3DA
Copy OK
Track 8
Filename C:\stuff\music\rips\Eddie Kendricks - The Thin Man The Motown Solo Albums Vol 2 (2006)\CD1\08 Trust Your Heart.wav
Pre-gap length 0:00:02.68
Peak level 100.0 %
Track quality 100.0 %
Test CRC D4F6B45A
Copy CRC D4F6B45A
Copy OK
Track 9
Filename C:\stuff\music\rips\Eddie Kendricks - The Thin Man The Motown Solo Albums Vol 2 (2006)\CD1\09 Girl Of My Dreams.wav
Pre-gap length 0:00:02.77
Peak level 85.0 %
Track quality 100.0 %
Test CRC BC975B49
Copy CRC BC975B49
Copy OK
Track 10
Filename C:\stuff\music\rips\Eddie Kendricks - The Thin Man The Motown Solo Albums Vol 2 (2006)\CD1\10 Loving You The Second Time Around.wav
Pre-gap length 0:00:01.78
Peak level 98.5 %
Track quality 100.0 %
Test CRC 63054DB6
Copy CRC 63054DB6
Copy OK
Track 11
Filename C:\stuff\music\rips\Eddie Kendricks - The Thin Man The Motown Solo Albums Vol 2 (2006)\CD1\11 If Anyone Can.wav
Pre-gap length 0:00:02.33
Peak level 100.0 %
Track quality 100.0 %
Test CRC 809A0701
Copy CRC 809A0701
Copy OK
Track 12
Filename C:\stuff\music\rips\Eddie Kendricks - The Thin Man The Motown Solo Albums Vol 2 (2006)\CD1\12 Happy.wav
Pre-gap length 0:00:01.98
Peak level 100.0 %
Track quality 99.9 %
Test CRC A8394A80
Copy CRC A8394A80
Copy OK
Track 13
Filename C:\stuff\music\rips\Eddie Kendricks - The Thin Man The Motown Solo Albums Vol 2 (2006)\CD1\13 Get The Cream Off The Top.wav
Pre-gap length 0:00:02.77
Peak level 97.4 %
Track quality 100.0 %
Test CRC 93482F38
Copy CRC 93482F38
Copy OK
Track 14
Filename C:\stuff\music\rips\Eddie Kendricks - The Thin Man The Motown Solo Albums Vol 2 (2006)\CD1\14 Body Talk.wav
Pre-gap length 0:00:02.44
Peak level 100.0 %
Track quality 100.0 %
Test CRC 3B2468A6
Copy CRC 3B2468A6
Copy OK
Track 15
Filename C:\stuff\music\rips\Eddie Kendricks - The Thin Man The Motown Solo Albums Vol 2 (2006)\CD1\15 Fortune Teller.wav
Pre-gap length 0:00:02.57
Peak level 100.0 %
Track quality 100.0 %
Test CRC D92D23AC
Copy CRC D92D23AC
Copy OK
Track 16
Filename C:\stuff\music\rips\Eddie Kendricks - The Thin Man The Motown Solo Albums Vol 2 (2006)\CD1\16 Skippin' Work Today.wav
Pre-gap length 0:00:02.64
Peak level 100.0 %
Track quality 100.0 %
Test CRC 499240FB
Copy CRC 499240FB
Copy OK
Track 17
Filename C:\stuff\music\rips\Eddie Kendricks - The Thin Man The Motown Solo Albums Vol 2 (2006)\CD1\17 You Loved Me Then.wav
Pre-gap length 0:00:02.97
Peak level 100.0 %
Track quality 100.0 %
Test CRC FEE312D2
Copy CRC FEE312D2
Copy OK
Track 18
Filename C:\stuff\music\rips\Eddie Kendricks - The Thin Man The Motown Solo Albums Vol 2 (2006)\CD1\18 I've Got to Be.wav
Pre-gap length 0:00:02.41
Peak level 100.0 %
Track quality 100.0 %
Test CRC 6328DE7B
Copy CRC 6328DE7B
Copy OK
No errors occured
End of status report
 
Содержание индексной карты (.CUE)
REM GENRE Soul
REM DATE 2006
REM DISCID FB12AA12
REM COMMENT "ExactAudioCopy v0.95b4"
CATALOG 0602517048355
PERFORMER "Eddie Kendricks"
TITLE "The Thin Man The Motown Solo Albums, Vol 2 - CD1"
FILE "01 The Thin Man.wav" WAVE
TRACK 01 AUDIO
TITLE "The Thin Man"
PERFORMER "Eddie Kendricks"
ISRC USUM70611468
INDEX 01 00:00:00
TRACK 02 AUDIO
TITLE "Tell Her Love Has Felt The Need"
PERFORMER "Eddie Kendricks"
ISRC USMO17484641
INDEX 00 03:35:69
FILE "02 Tell Her Love Has Felt The Need.wav" WAVE
INDEX 01 00:00:00
TRACK 03 AUDIO
TITLE "Son Of Sagittarius"
PERFORMER "Eddie Kendricks"
ISRC USMO10000804
INDEX 00 04:25:46
FILE "03 Son Of Sagittarius.wav" WAVE
INDEX 01 00:00:00
TRACK 04 AUDIO
TITLE "Boogie Down"
PERFORMER "Eddie Kendricks"
ISRC USMO17384641
INDEX 00 03:35:73
FILE "04 Boogie Down.wav" WAVE
INDEX 01 00:00:00
TRACK 05 AUDIO
TITLE "Hooked On Your Love"
PERFORMER "Eddie Kendricks"
ISRC USUM70611447
INDEX 00 06:59:17
FILE "05 Hooked On Your Love.wav" WAVE
INDEX 01 00:00:00
TRACK 06 AUDIO
TITLE "Honey Brown"
PERFORMER "Eddie Kendricks"
ISRC USMO10200294
INDEX 00 03:16:32
FILE "06 Honey Brown.wav" WAVE
INDEX 01 00:00:00
TRACK 07 AUDIO
TITLE "You Are The Melody Of My Life"
PERFORMER "Eddie Kendricks"
ISRC USUM70611472
INDEX 00 05:09:17
FILE "07 You Are The Melody Of My Life.wav" WAVE
INDEX 01 00:00:00
TRACK 08 AUDIO
TITLE "Trust Your Heart"
PERFORMER "Eddie Kendricks"
ISRC USUM70611471
INDEX 00 03:57:64
FILE "08 Trust Your Heart.wav" WAVE
INDEX 01 00:00:00
TRACK 09 AUDIO
TITLE "Girl Of My Dreams"
PERFORMER "Eddie Kendricks"
ISRC USUM70611444
INDEX 00 04:11:54
FILE "09 Girl Of My Dreams.wav" WAVE
INDEX 01 00:00:00
TRACK 10 AUDIO
TITLE "Loving You The Second Time Around"
PERFORMER "Eddie Kendricks"
ISRC USUM70611457
INDEX 00 03:26:08
FILE "10 Loving You The Second Time Around.wav" WAVE
INDEX 01 00:00:00
TRACK 11 AUDIO
TITLE "If Anyone Can"
PERFORMER "Eddie Kendricks"
ISRC USUM70611452
INDEX 00 03:09:03
FILE "11 If Anyone Can.wav" WAVE
INDEX 01 00:00:00
TRACK 12 AUDIO
TITLE "Happy"
PERFORMER "Eddie Kendricks"
ISRC USUM70611446
INDEX 00 03:24:72
FILE "12 Happy.wav" WAVE
INDEX 01 00:00:00
TRACK 13 AUDIO
TITLE "Get The Cream Off The Top"
PERFORMER "Eddie Kendricks"
ISRC USMO17582647
INDEX 00 05:13:23
FILE "13 Get The Cream Off The Top.wav" WAVE
INDEX 01 00:00:00
TRACK 14 AUDIO
TITLE "Body Talk"
PERFORMER "Eddie Kendricks"
ISRC USMO10200296
INDEX 00 03:07:33
FILE "14 Body Talk.wav" WAVE
INDEX 01 00:00:00
TRACK 15 AUDIO
TITLE "Fortune Teller"
PERFORMER "Eddie Kendricks"
ISRC USUM70611443
INDEX 00 06:44:26
FILE "15 Fortune Teller.wav" WAVE
INDEX 01 00:00:00
TRACK 16 AUDIO
TITLE "Skippin' Work Today"
PERFORMER "Eddie Kendricks"
ISRC USMO17584692
INDEX 00 03:34:19
FILE "16 Skippin' Work Today.wav" WAVE
INDEX 01 00:00:00
TRACK 17 AUDIO
TITLE "You Loved Me Then"
PERFORMER "Eddie Kendricks"
ISRC USUM70611474
INDEX 00 04:37:01
FILE "17 You Loved Me Then.wav" WAVE
INDEX 01 00:00:00
TRACK 18 AUDIO
TITLE "I've Got to Be"
PERFORMER "Eddie Kendricks"
ISRC USMO10200295
INDEX 00 02:32:55
FILE "18 I've Got to Be.wav" WAVE
INDEX 01 00:00:00
 
Лог проверки качества
AUDIOCHECKER v2.0 beta (build 457) - by Dester - opdester@freemail.hu
~~~~~~~~~~~~~~~~~~~~~~~~~~~~~~~~~~
Started at: среда, 08. 04. 2015. - 12:38.42
18 files found
01 -===- L:\Kendricks, Eddie\(2006) The Thin Man - The Motown Solo Albums, Vol. 2\CD 1\01 The Thin Man.flac
Extracted successfully
Conclusion: this track is CDDA with probability 100%
Tempfile successfully deleted.
02 -===- L:\Kendricks, Eddie\(2006) The Thin Man - The Motown Solo Albums, Vol. 2\CD 1\02 Tell Her Love Has Felt The Need.flac
Extracted successfully
Conclusion: this track is CDDA with probability 100%
Tempfile successfully deleted.
03 -===- L:\Kendricks, Eddie\(2006) The Thin Man - The Motown Solo Albums, Vol. 2\CD 1\03 Son Of Sagittarius.flac
Extracted successfully
Conclusion: this track is CDDA with probability 100%
Tempfile successfully deleted.
04 -===- L:\Kendricks, Eddie\(2006) The Thin Man - The Motown Solo Albums, Vol. 2\CD 1\04 Boogie Down.flac
Extracted successfully
Conclusion: this track is CDDA with probability 100%
Tempfile successfully deleted.
05 -===- L:\Kendricks, Eddie\(2006) The Thin Man - The Motown Solo Albums, Vol. 2\CD 1\05 Hooked On Your Love.flac
Extracted successfully
Conclusion: this track is CDDA with probability 100%
Tempfile successfully deleted.
06 -===- L:\Kendricks, Eddie\(2006) The Thin Man - The Motown Solo Albums, Vol. 2\CD 1\06 Honey Brown.flac
Extracted successfully
Conclusion: this track is CDDA with probability 100%
Tempfile successfully deleted.
07 -===- L:\Kendricks, Eddie\(2006) The Thin Man - The Motown Solo Albums, Vol. 2\CD 1\07 You Are The Melody Of My Life.flac
Extracted successfully
Conclusion: this track is CDDA with probability 100%
Tempfile successfully deleted.
08 -===- L:\Kendricks, Eddie\(2006) The Thin Man - The Motown Solo Albums, Vol. 2\CD 1\08 Trust Your Heart.flac
Extracted successfully
Conclusion: this track is CDDA with probability 100%
Tempfile successfully deleted.
09 -===- L:\Kendricks, Eddie\(2006) The Thin Man - The Motown Solo Albums, Vol. 2\CD 1\09 Girl Of My Dreams.flac
Extracted successfully
Conclusion: this track is CDDA with probability 100%
Tempfile successfully deleted.
10 -===- L:\Kendricks, Eddie\(2006) The Thin Man - The Motown Solo Albums, Vol. 2\CD 1\10 Loving You The Second Time Around.flac
Extracted successfully
Conclusion: this track is CDDA with probability 100%
Tempfile successfully deleted.
11 -===- L:\Kendricks, Eddie\(2006) The Thin Man - The Motown Solo Albums, Vol. 2\CD 1\11 If Anyone Can.flac
Extracted successfully
Conclusion: this track is CDDA with probability 100%
Tempfile successfully deleted.
12 -===- L:\Kendricks, Eddie\(2006) The Thin Man - The Motown Solo Albums, Vol. 2\CD 1\12 Happy.flac
Extracted successfully
Conclusion: this track is CDDA with probability 100%
Tempfile successfully deleted.
13 -===- L:\Kendricks, Eddie\(2006) The Thin Man - The Motown Solo Albums, Vol. 2\CD 1\13 Get The Cream Off The Top.flac
Extracted successfully
Conclusion: this track is CDDA with probability 100%
Tempfile successfully deleted.
14 -===- L:\Kendricks, Eddie\(2006) The Thin Man - The Motown Solo Albums, Vol. 2\CD 1\14 Body Talk.flac
Extracted successfully
Conclusion: this track is CDDA with probability 100%
Tempfile successfully deleted.
15 -===- L:\Kendricks, Eddie\(2006) The Thin Man - The Motown Solo Albums, Vol. 2\CD 1\15 Fortune Teller.flac
Extracted successfully
Conclusion: this track is CDDA with probability 100%
Tempfile successfully deleted.
16 -===- L:\Kendricks, Eddie\(2006) The Thin Man - The Motown Solo Albums, Vol. 2\CD 1\16 Skippin' Work Today.flac
Extracted successfully
Conclusion: this track is CDDA with probability 100%
Tempfile successfully deleted.
17 -===- L:\Kendricks, Eddie\(2006) The Thin Man - The Motown Solo Albums, Vol. 2\CD 1\17 You Loved Me Then.flac
Extracted successfully
Conclusion: this track is CDDA with probability 100%
Tempfile successfully deleted.
18 -===- L:\Kendricks, Eddie\(2006) The Thin Man - The Motown Solo Albums, Vol. 2\CD 1\18 I've Got to Be.flac
Extracted successfully
Conclusion: this track is CDDA with probability 100%
Tempfile successfully deleted.
Finished at: среда, 08. 04. 2015. - 12:44.19 (operation time: 0:05.36)
 
CD 2
 
Лог создания рипа
EAC extraction logfile from 15. January 2008, 8:07 for CD
Eddie Kendricks / The Thin Man The Motown Solo Albums, Vol 2 - CD2
Used drive : SAMSUNG CD-ROM SC-148A Adapter: 1 ID: 0
Read mode : Secure with NO C2, accurate stream, disable cache
Read offset correction : 12
Overread into Lead-In and Lead-Out : No
Used output format : C:\FLAC\flac.exe (User Defined Encoder)
160 kBit/s
Additional command line options : -V -8 -T "artist=%a" -T "title=%t" -T "album=%g" -T "date=%y" -T "tracknumber=%n" -T "genre=%m" %s
Other options :
Fill up missing offset samples with silence : Yes
Delete leading and trailing silent blocks : No
Installed external ASPI interface
Track 1
Filename C:\stuff\music\rips\Eddie Kendricks - The Thin Man The Motown Solo Albums Vol 2 (2006)\CD2\01 He's A Friend.wav
Pre-gap length 0:00:02.00
Peak level 100.0 %
Track quality 100.0 %
Test CRC F6C33E62
Copy CRC F6C33E62
Copy OK
Track 2
Filename C:\stuff\music\rips\Eddie Kendricks - The Thin Man The Motown Solo Albums Vol 2 (2006)\CD2\02 A Part Of Me.wav
Pre-gap length 0:00:03.06
Peak level 100.0 %
Track quality 100.0 %
Test CRC F1D81CAF
Copy CRC F1D81CAF
Copy OK
Track 3
Filename C:\stuff\music\rips\Eddie Kendricks - The Thin Man The Motown Solo Albums Vol 2 (2006)\CD2\03 I Won't Take No.wav
Pre-gap length 0:00:02.50
Peak level 100.0 %
Track quality 100.0 %
Test CRC 7A7ECD88
Copy CRC 7A7ECD88
Copy OK
Track 4
Filename C:\stuff\music\rips\Eddie Kendricks - The Thin Man The Motown Solo Albums Vol 2 (2006)\CD2\04 Never Gonna Leave You.wav
Pre-gap length 0:00:03.17
Peak level 100.0 %
Track quality 100.0 %
Test CRC 54C4E5B4
Copy CRC 54C4E5B4
Copy OK
Track 5
Filename C:\stuff\music\rips\Eddie Kendricks - The Thin Man The Motown Solo Albums Vol 2 (2006)\CD2\05 Get It While It's Hot.wav
Pre-gap length 0:00:04.41
Peak level 100.0 %
Track quality 100.0 %
Test CRC DC9E3E9C
Copy CRC DC9E3E9C
Copy OK
Track 6
Filename C:\stuff\music\rips\Eddie Kendricks - The Thin Man The Motown Solo Albums Vol 2 (2006)\CD2\06 Chains.wav
Pre-gap length 0:00:02.57
Peak level 100.0 %
Track quality 100.0 %
Test CRC D8565B7F
Copy CRC D8565B7F
Copy OK
Track 7
Filename C:\stuff\music\rips\Eddie Kendricks - The Thin Man The Motown Solo Albums Vol 2 (2006)\CD2\07 The Sweeter You Treat Her.wav
Pre-gap length 0:00:03.14
Peak level 100.0 %
Track quality 100.0 %
Test CRC 9FBBE9E0
Copy CRC 9FBBE9E0
Copy OK
Track 8
Filename C:\stuff\music\rips\Eddie Kendricks - The Thin Man The Motown Solo Albums Vol 2 (2006)\CD2\08 It's Not What You Got.wav
Pre-gap length 0:00:04.02
Peak level 100.0 %
Track quality 100.0 %
Test CRC C62090C8
Copy CRC C62090C8
Copy OK
Track 9
Filename C:\stuff\music\rips\Eddie Kendricks - The Thin Man The Motown Solo Albums Vol 2 (2006)\CD2\09 On My Way Home.wav
Pre-gap length 0:00:03.85
Peak level 100.0 %
Track quality 100.0 %
Test CRC 2B847433
Copy CRC 2B847433
Copy OK
Track 10
Filename C:\stuff\music\rips\Eddie Kendricks - The Thin Man The Motown Solo Albums Vol 2 (2006)\CD2\10 All Of My Love.wav
Pre-gap length 0:00:03.72
Peak level 100.0 %
Track quality 100.0 %
Test CRC 9AD87949
Copy CRC 9AD87949
Copy OK
Track 11
Filename C:\stuff\music\rips\Eddie Kendricks - The Thin Man The Motown Solo Albums Vol 2 (2006)\CD2\11 Goin' Up In Smoke.wav
Pre-gap length 0:00:03.57
Peak level 100.0 %
Track quality 100.0 %
Test CRC 06151D60
Copy CRC 06151D60
Copy OK
Track 12
Filename C:\stuff\music\rips\Eddie Kendricks - The Thin Man The Motown Solo Albums Vol 2 (2006)\CD2\12 The Newness Is Gone.wav
Pre-gap length 0:00:02.08
Peak level 100.0 %
Track quality 100.0 %
Test CRC B2C30D40
Copy CRC B2C30D40
Copy OK
Track 13
Filename C:\stuff\music\rips\Eddie Kendricks - The Thin Man The Motown Solo Albums Vol 2 (2006)\CD2\13 Sweet Tenderoni.wav
Pre-gap length 0:00:02.54
Peak level 100.0 %
Track quality 100.0 %
Test CRC BB11B4D5
Copy CRC BB11B4D5
Copy OK
Track 14
Filename C:\stuff\music\rips\Eddie Kendricks - The Thin Man The Motown Solo Albums Vol 2 (2006)\CD2\14 Born Again.wav
Pre-gap length 0:00:03.69
Peak level 100.0 %
Track quality 100.0 %
Test CRC 6CA01A81
Copy CRC 6CA01A81
Copy OK
Track 15
Filename C:\stuff\music\rips\Eddie Kendricks - The Thin Man The Motown Solo Albums Vol 2 (2006)\CD2\15 Don't You Want Light.wav
Pre-gap length 0:00:02.08
Peak level 100.0 %
Track quality 100.0 %
Test CRC 3B713882
Copy CRC 3B713882
Copy OK
Track 16
Filename C:\stuff\music\rips\Eddie Kendricks - The Thin Man The Motown Solo Albums Vol 2 (2006)\CD2\16 Music Man.wav
Pre-gap length 0:00:02.56
Peak level 100.0 %
Track quality 100.0 %
Test CRC A0BED70D
Copy CRC A0BED70D
Copy OK
Track 17
Filename C:\stuff\music\rips\Eddie Kendricks - The Thin Man The Motown Solo Albums Vol 2 (2006)\CD2\17 Thanks For The Memories.wav
Pre-gap length 0:00:02.22
Peak level 100.0 %
Track quality 99.9 %
Test CRC 7BC44927
Copy CRC 7BC44927
Copy OK
Track 18
Filename C:\stuff\music\rips\Eddie Kendricks - The Thin Man The Motown Solo Albums Vol 2 (2006)\CD2\18 To You From Me.wav
Pre-gap length 0:00:02.56
Peak level 100.0 %
Track quality 100.0 %
Test CRC DFA3DB56
Copy CRC DFA3DB56
Copy OK
Track 19
Filename C:\stuff\music\rips\Eddie Kendricks - The Thin Man The Motown Solo Albums Vol 2 (2006)\CD2\19 Don't Put Off Till Tomorrow.wav
Pre-gap length 0:00:02.24
Peak level 100.0 %
Track quality 100.0 %
Test CRC 96360429
Copy CRC 96360429
Copy OK
Track 20
Filename C:\stuff\music\rips\Eddie Kendricks - The Thin Man The Motown Solo Albums Vol 2 (2006)\CD2\20 Skeleton In Your Closet.wav
Pre-gap length 0:00:02.22
Peak level 100.0 %
Track quality 100.0 %
Test CRC 847D161E
Copy CRC 847D161E
Copy OK
No errors occured
End of status report
 
Содержание индексной карты (.CUE)
REM GENRE Soul
REM DATE 2006
REM DISCID 24128614
REM COMMENT "ExactAudioCopy v0.95b4"
CATALOG 0602517048362
PERFORMER "Eddie Kendricks"
TITLE "The Thin Man The Motown Solo Albums, Vol 2 - CD2"
FILE "01 He's A Friend.wav" WAVE
TRACK 01 AUDIO
TITLE "He's A Friend"
PERFORMER "Eddie Kendricks"
ISRC USMO17682870
INDEX 01 00:00:00
TRACK 02 AUDIO
TITLE "A Part Of Me"
PERFORMER "Eddie Kendricks"
ISRC USMO10300602
INDEX 00 04:43:70
FILE "02 A Part Of Me.wav" WAVE
INDEX 01 00:00:00
TRACK 03 AUDIO
TITLE "I Won't Take No"
PERFORMER "Eddie Kendricks"
ISRC USMO10200300
INDEX 00 03:18:51
FILE "03 I Won't Take No.wav" WAVE
INDEX 01 00:00:00
TRACK 04 AUDIO
TITLE "Never Gonna Leave You"
PERFORMER "Eddie Kendricks"
ISRC USMO10200299
INDEX 00 02:56:07
FILE "04 Never Gonna Leave You.wav" WAVE
INDEX 01 00:00:00
TRACK 05 AUDIO
TITLE "Get It While It's Hot"
PERFORMER "Eddie Kendricks"
ISRC USMO17682871
INDEX 00 04:09:16
FILE "05 Get It While It's Hot.wav" WAVE
INDEX 01 00:00:00
TRACK 06 AUDIO
TITLE "Chains"
PERFORMER "Eddie Kendricks"
ISRC USMO10200298
INDEX 00 03:10:30
FILE "06 Chains.wav" WAVE
INDEX 01 00:00:00
TRACK 07 AUDIO
TITLE "The Sweeter You Treat Her"
PERFORMER "Eddie Kendricks"
ISRC USMO10200302
INDEX 00 03:24:09
FILE "07 The Sweeter You Treat Her.wav" WAVE
INDEX 01 00:00:00
TRACK 08 AUDIO
TITLE "It's Not What You Got"
PERFORMER "Eddie Kendricks"
ISRC USUM70611454
INDEX 00 04:53:46
FILE "08 It's Not What You Got.wav" WAVE
INDEX 01 00:00:00
TRACK 09 AUDIO
TITLE "On My Way Home"
PERFORMER "Eddie Kendricks"
ISRC USMO10200301
INDEX 00 04:08:22
FILE "09 On My Way Home.wav" WAVE
INDEX 01 00:00:00
TRACK 10 AUDIO
TITLE "All Of My Love"
PERFORMER "Eddie Kendricks"
ISRC USUM70611436
INDEX 00 02:49:07
FILE "10 All Of My Love.wav" WAVE
INDEX 01 00:00:00
TRACK 11 AUDIO
TITLE "Goin' Up In Smoke"
PERFORMER "Eddie Kendricks"
ISRC USMO17682872
INDEX 00 02:45:52
FILE "11 Goin' Up In Smoke.wav" WAVE
INDEX 01 00:00:00
TRACK 12 AUDIO
TITLE "The Newness Is Gone"
PERFORMER "Eddie Kendricks"
ISRC USMO10200304
INDEX 00 04:29:74
FILE "12 The Newness Is Gone.wav" WAVE
INDEX 01 00:00:00
TRACK 13 AUDIO
TITLE "Sweet Tenderoni"
PERFORMER "Eddie Kendricks"
ISRC USUM70611463
INDEX 00 05:10:02
FILE "13 Sweet Tenderoni.wav" WAVE
INDEX 01 00:00:00
TRACK 14 AUDIO
TITLE "Born Again"
PERFORMER "Eddie Kendricks"
ISRC USUM70611438
INDEX 00 04:15:02
FILE "14 Born Again.wav" WAVE
INDEX 01 00:00:00
TRACK 15 AUDIO
TITLE "Don't You Want Light"
PERFORMER "Eddie Kendricks"
ISRC USUM70611442
INDEX 00 03:29:36
FILE "15 Don't You Want Light.wav" WAVE
INDEX 01 00:00:00
TRACK 16 AUDIO
TITLE "Music Man"
PERFORMER "Eddie Kendricks"
ISRC USUM70611459
INDEX 00 03:49:22
FILE "16 Music Man.wav" WAVE
INDEX 01 00:00:00
TRACK 17 AUDIO
TITLE "Thanks For The Memories"
PERFORMER "Eddie Kendricks"
ISRC USUM70611465
INDEX 00 05:33:48
FILE "17 Thanks For The Memories.wav" WAVE
INDEX 01 00:00:00
TRACK 18 AUDIO
TITLE "To You From Me"
PERFORMER "Eddie Kendricks"
ISRC USUM70611470
INDEX 00 05:25:60
FILE "18 To You From Me.wav" WAVE
INDEX 01 00:00:00
TRACK 19 AUDIO
TITLE "Don't Put Off Till Tomorrow"
PERFORMER "Eddie Kendricks"
ISRC USUM70611441
INDEX 00 03:04:17
FILE "19 Don't Put Off Till Tomorrow.wav" WAVE
INDEX 01 00:00:00
TRACK 20 AUDIO
TITLE "Skeleton In Your Closet"
PERFORMER "Eddie Kendricks"
ISRC USMO10200303
INDEX 00 03:56:03
FILE "20 Skeleton In Your Closet.wav" WAVE
INDEX 01 00:00:00
 
Лог проверки качества
AUDIOCHECKER v2.0 beta (build 457) - by Dester - opdester@freemail.hu
~~~~~~~~~~~~~~~~~~~~~~~~~~~~~~~~~~
Started at: среда, 08. 04. 2015. - 12:44.45
20 files found
01 -===- L:\Kendricks, Eddie\(2006) The Thin Man - The Motown Solo Albums, Vol. 2\CD 2\01 He's A Friend.flac
Extracted successfully
Conclusion: this track is CDDA with probability 100%
Tempfile successfully deleted.
02 -===- L:\Kendricks, Eddie\(2006) The Thin Man - The Motown Solo Albums, Vol. 2\CD 2\02 A Part Of Me.flac
Extracted successfully
Conclusion: this track is CDDA with probability 100%
Tempfile successfully deleted.
03 -===- L:\Kendricks, Eddie\(2006) The Thin Man - The Motown Solo Albums, Vol. 2\CD 2\03 I Won't Take No.flac
Extracted successfully
Conclusion: this track is CDDA with probability 100%
Tempfile successfully deleted.
04 -===- L:\Kendricks, Eddie\(2006) The Thin Man - The Motown Solo Albums, Vol. 2\CD 2\04 Never Gonna Leave You.flac
Extracted successfully
Conclusion: this track is CDDA with probability 100%
Tempfile successfully deleted.
05 -===- L:\Kendricks, Eddie\(2006) The Thin Man - The Motown Solo Albums, Vol. 2\CD 2\05 Get It While It's Hot.flac
Extracted successfully
Conclusion: this track is CDDA with probability 100%
Tempfile successfully deleted.
06 -===- L:\Kendricks, Eddie\(2006) The Thin Man - The Motown Solo Albums, Vol. 2\CD 2\06 Chains.flac
Extracted successfully
Conclusion: this track is CDDA with probability 100%
Tempfile successfully deleted.
07 -===- L:\Kendricks, Eddie\(2006) The Thin Man - The Motown Solo Albums, Vol. 2\CD 2\07 The Sweeter You Treat Her.flac
Extracted successfully
Conclusion: this track is CDDA with probability 100%
Tempfile successfully deleted.
08 -===- L:\Kendricks, Eddie\(2006) The Thin Man - The Motown Solo Albums, Vol. 2\CD 2\08 It's Not What You Got.flac
Extracted successfully
Conclusion: this track is CDDA with probability 100%
Tempfile successfully deleted.
09 -===- L:\Kendricks, Eddie\(2006) The Thin Man - The Motown Solo Albums, Vol. 2\CD 2\09 On My Way Home.flac
Extracted successfully
Conclusion: this track is CDDA with probability 100%
Tempfile successfully deleted.
10 -===- L:\Kendricks, Eddie\(2006) The Thin Man - The Motown Solo Albums, Vol. 2\CD 2\10 All Of My Love.flac
Extracted successfully
Conclusion: this track is CDDA with probability 100%
Tempfile successfully deleted.
11 -===- L:\Kendricks, Eddie\(2006) The Thin Man - The Motown Solo Albums, Vol. 2\CD 2\11 Goin' Up In Smoke.flac
Extracted successfully
Conclusion: this track is CDDA with probability 100%
Tempfile successfully deleted.
12 -===- L:\Kendricks, Eddie\(2006) The Thin Man - The Motown Solo Albums, Vol. 2\CD 2\12 The Newness Is Gone.flac
Extracted successfully
Conclusion: this track is CDDA with probability 100%
Tempfile successfully deleted.
13 -===- L:\Kendricks, Eddie\(2006) The Thin Man - The Motown Solo Albums, Vol. 2\CD 2\13 Sweet Tenderoni.flac
Extracted successfully
Conclusion: this track is CDDA with probability 100%
Tempfile successfully deleted.
14 -===- L:\Kendricks, Eddie\(2006) The Thin Man - The Motown Solo Albums, Vol. 2\CD 2\14 Born Again.flac
Extracted successfully
Conclusion: this track is CDDA with probability 100%
Tempfile successfully deleted.
15 -===- L:\Kendricks, Eddie\(2006) The Thin Man - The Motown Solo Albums, Vol. 2\CD 2\15 Don't You Want Light.flac
Extracted successfully
Conclusion: this track is CDDA with probability 100%
Tempfile successfully deleted.
16 -===- L:\Kendricks, Eddie\(2006) The Thin Man - The Motown Solo Albums, Vol. 2\CD 2\16 Music Man.flac
Extracted successfully
Conclusion: this track is CDDA with probability 100%
Tempfile successfully deleted.
17 -===- L:\Kendricks, Eddie\(2006) The Thin Man - The Motown Solo Albums, Vol. 2\CD 2\17 Thanks For The Memories.flac
Extracted successfully
Conclusion: this track is CDDA with probability 100%
Tempfile successfully deleted.
18 -===- L:\Kendricks, Eddie\(2006) The Thin Man - The Motown Solo Albums, Vol. 2\CD 2\18 To You From Me.flac
Extracted successfully
Conclusion: this track is CDDA with probability 100%
Tempfile successfully deleted.
19 -===- L:\Kendricks, Eddie\(2006) The Thin Man - The Motown Solo Albums, Vol. 2\CD 2\19 Don't Put Off Till Tomorrow.flac
Extracted successfully
Conclusion: this track is CDDA with probability 100%
Tempfile successfully deleted.
20 -===- L:\Kendricks, Eddie\(2006) The Thin Man - The Motown Solo Albums, Vol. 2\CD 2\20 Skeleton In Your Closet.flac
Extracted successfully
Conclusion: this track is CDDA with probability 99%
Tempfile successfully deleted.
Finished at: среда, 08. 04. 2015. - 12:50.23 (operation time: 0:05.38)
 
CD 3
 
Лог создания рипа
EAC extraction logfile from 15. January 2008, 18:52 for CD
Eddie Kendricks / The Thin Man The Motown Solo Albums, Vol 2 - CD3
Used drive : SAMSUNG CD-ROM SC-148A Adapter: 1 ID: 0
Read mode : Secure with NO C2, accurate stream, disable cache
Read offset correction : 12
Overread into Lead-In and Lead-Out : No
Used output format : C:\FLAC\flac.exe (User Defined Encoder)
160 kBit/s
Additional command line options : -V -8 -T "artist=%a" -T "title=%t" -T "album=%g" -T "date=%y" -T "tracknumber=%n" -T "genre=%m" %s
Other options :
Fill up missing offset samples with silence : Yes
Delete leading and trailing silent blocks : No
Installed external ASPI interface
Track 1
Filename C:\stuff\music\rips\Eddie Kendricks - The Thin Man The Motown Solo Albums Vol 2 (2006)\CD3\01 Something Shady (Is Going On).wav
Pre-gap length 0:00:02.00
Peak level 100.0 %
Track quality 100.0 %
Test CRC 47692491
Copy CRC 47692491
Copy OK
Track 2
Filename C:\stuff\music\rips\Eddie Kendricks - The Thin Man The Motown Solo Albums Vol 2 (2006)\CD3\02 Baby.wav
Pre-gap length 0:00:04.57
Peak level 79.3 %
Track quality 100.0 %
Test CRC 62D152F8
Copy CRC 62D152F8
Copy OK
Track 3
Filename C:\stuff\music\rips\Eddie Kendricks - The Thin Man The Motown Solo Albums Vol 2 (2006)\CD3\03 I Want To Live (My Life With You).wav
Pre-gap length 0:00:04.57
Peak level 100.0 %
Track quality 100.0 %
Test CRC 3FD6FE98
Copy CRC 3FD6FE98
Copy OK
Track 4
Filename C:\stuff\music\rips\Eddie Kendricks - The Thin Man The Motown Solo Albums Vol 2 (2006)\CD3\04 You Got It.wav
Pre-gap length 0:00:04.57
Peak level 79.3 %
Track quality 100.0 %
Test CRC 02C4B80A
Copy CRC 02C4B80A
Copy OK
Track 5
Filename C:\stuff\music\rips\Eddie Kendricks - The Thin Man The Motown Solo Albums Vol 2 (2006)\CD3\05 Intimate Friends.wav
Pre-gap length 0:00:04.58
Peak level 79.3 %
Track quality 100.0 %
Test CRC 4012EB21
Copy CRC 4012EB21
Copy OK
Track 6
Filename C:\stuff\music\rips\Eddie Kendricks - The Thin Man The Motown Solo Albums Vol 2 (2006)\CD3\06 Diamond Girl.wav
Pre-gap length 0:00:02.57
Peak level 79.3 %
Track quality 100.0 %
Test CRC CB15D21E
Copy CRC CB15D21E
Copy OK
Track 7
Filename C:\stuff\music\rips\Eddie Kendricks - The Thin Man The Motown Solo Albums Vol 2 (2006)\CD3\07 Then Came You.wav
Pre-gap length 0:00:04.58
Peak level 79.3 %
Track quality 100.0 %
Test CRC 79833016
Copy CRC 79833016
Copy OK
Track 8
Filename C:\stuff\music\rips\Eddie Kendricks - The Thin Man The Motown Solo Albums Vol 2 (2006)\CD3\08 I'll Have To Let You Go.wav
Pre-gap length 0:00:04.56
Peak level 98.5 %
Track quality 100.0 %
Test CRC 37F5B872
Copy CRC 37F5B872
Copy OK
Track 9
Filename C:\stuff\music\rips\Eddie Kendricks - The Thin Man The Motown Solo Albums Vol 2 (2006)\CD3\09 California Woman.wav
Pre-gap length 0:00:04.57
Peak level 79.3 %
Track quality 99.9 %
Test CRC F266FD4A
Copy CRC F266FD4A
Copy OK
Track 10
Filename C:\stuff\music\rips\Eddie Kendricks - The Thin Man The Motown Solo Albums Vol 2 (2006)\CD3\10 Let Now Be Now, Let Love Be Love.wav
Pre-gap length 0:00:01.13
Peak level 100.0 %
Track quality 100.0 %
Test CRC FF31EA9F
Copy CRC FF31EA9F
Copy OK
Track 11
Filename C:\stuff\music\rips\Eddie Kendricks - The Thin Man The Motown Solo Albums Vol 2 (2006)\CD3\11 I Need You More Now Than Ever.wav
Pre-gap length 0:00:04.57
Peak level 100.0 %
Track quality 99.9 %
Test CRC E9BA65C0
Copy CRC E9BA65C0
Copy OK
Track 12
Filename C:\stuff\music\rips\Eddie Kendricks - The Thin Man The Motown Solo Albums Vol 2 (2006)\CD3\12 That's All Behind You.wav
Pre-gap length 0:00:04.58
Peak level 100.0 %
Track quality 100.0 %
Test CRC 3AAADF84
Copy CRC 3AAADF84
Copy OK
Track 13
Filename C:\stuff\music\rips\Eddie Kendricks - The Thin Man The Motown Solo Albums Vol 2 (2006)\CD3\13 Go On With Your Bad Self.wav
Pre-gap length 0:00:04.56
Peak level 100.0 %
Track quality 99.9 %
Test CRC 46777BD6
Copy CRC 46777BD6
Copy OK
Track 14
Filename C:\stuff\music\rips\Eddie Kendricks - The Thin Man The Motown Solo Albums Vol 2 (2006)\CD3\14 Johnny Faraway.wav
Pre-gap length 0:00:04.56
Peak level 100.0 %
Track quality 100.0 %
Test CRC 23B887A8
Copy CRC 23B887A8
Copy OK
Track 15
Filename C:\stuff\music\rips\Eddie Kendricks - The Thin Man The Motown Solo Albums Vol 2 (2006)\CD3\15 If I Can't Love You Then I Can't Love Me.wav
Pre-gap length 0:00:04.56
Peak level 100.0 %
Track quality 100.0 %
Test CRC 5FCB8FFA
Copy CRC 5FCB8FFA
Copy OK
Track 16
Filename C:\stuff\music\rips\Eddie Kendricks - The Thin Man The Motown Solo Albums Vol 2 (2006)\CD3\16 Nothing Is Real.wav
Pre-gap length 0:00:04.57
Peak level 100.0 %
Track quality 100.0 %
Test CRC 842EEF6F
Copy CRC 842EEF6F
Copy OK
Track 17
Filename C:\stuff\music\rips\Eddie Kendricks - The Thin Man The Motown Solo Albums Vol 2 (2006)\CD3\17 I'll Be Your Servant.wav
Pre-gap length 0:00:04.58
Peak level 100.0 %
Track quality 100.0 %
Test CRC 19C9B441
Copy CRC 19C9B441
Copy OK
No errors occured
End of status report
 
Содержание индексной карты (.CUE)
REM GENRE Soul
REM DATE 2006
REM DISCID F2114F11
REM COMMENT "ExactAudioCopy v0.95b4"
CATALOG 0602517048379
PERFORMER "Eddie Kendricks"
TITLE "The Thin Man The Motown Solo Albums, Vol 2 - CD3"
FILE "01 Something Shady (Is Going On).wav" WAVE
TRACK 01 AUDIO
TITLE "Something Shady (Is Going On)"
PERFORMER "Eddie Kendricks"
ISRC USUM70611461
INDEX 01 00:00:00
TRACK 02 AUDIO
TITLE "Baby"
PERFORMER "Eddie Kendricks"
ISRC USUM70611437
INDEX 00 06:12:38
FILE "02 Baby.wav" WAVE
INDEX 01 00:00:00
TRACK 03 AUDIO
TITLE "I Want To Live (My Life With You)"
PERFORMER "Eddie Kendricks"
ISRC USUM70611449
INDEX 00 03:54:14
FILE "03 I Want To Live (My Life With You).wav" WAVE
INDEX 01 00:00:00
TRACK 04 AUDIO
TITLE "You Got It"
PERFORMER "Eddie Kendricks"
ISRC USUM70611473
INDEX 00 04:41:22
FILE "04 You Got It.wav" WAVE
INDEX 01 00:00:00
TRACK 05 AUDIO
TITLE "Intimate Friends"
PERFORMER "Eddie Kendricks"
ISRC USMO17784732
INDEX 00 03:28:04
FILE "05 Intimate Friends.wav" WAVE
INDEX 01 00:00:00
TRACK 06 AUDIO
TITLE "Diamond Girl"
PERFORMER "Eddie Kendricks"
ISRC USUM70611440
INDEX 00 05:53:34
FILE "06 Diamond Girl.wav" WAVE
INDEX 01 00:00:00
TRACK 07 AUDIO
TITLE "Then Came You"
PERFORMER "Eddie Kendricks"
ISRC USUM70611469
INDEX 00 05:23:44
FILE "07 Then Came You.wav" WAVE
INDEX 01 00:00:00
TRACK 08 AUDIO
TITLE "I'll Have To Let You Go"
PERFORMER "Eddie Kendricks"
ISRC USUM70611451
INDEX 00 07:40:28
FILE "08 I'll Have To Let You Go.wav" WAVE
INDEX 01 00:00:00
TRACK 09 AUDIO
TITLE "California Woman"
PERFORMER "Eddie Kendricks"
ISRC USUM70611439
INDEX 00 05:02:58
FILE "09 California Woman.wav" WAVE
INDEX 01 00:00:00
TRACK 10 AUDIO
TITLE "Let Now Be Now, Let Love Be Love"
PERFORMER "Eddie Kendricks"
ISRC USUM70611456
INDEX 00 03:33:54
FILE "10 Let Now Be Now, Let Love Be Love.wav" WAVE
INDEX 01 00:00:00
TRACK 11 AUDIO
TITLE "I Need You More Now Than Ever"
PERFORMER "Eddie Kendricks"
ISRC USUM70611448
INDEX 00 03:47:00
FILE "11 I Need You More Now Than Ever.wav" WAVE
INDEX 01 00:00:00
TRACK 12 AUDIO
TITLE "That's All Behind You"
PERFORMER "Eddie Kendricks"
ISRC USUM70611466
INDEX 00 03:45:13
FILE "12 That's All Behind You.wav" WAVE
INDEX 01 00:00:00
TRACK 13 AUDIO
TITLE "Go On With Your Bad Self"
PERFORMER "Eddie Kendricks"
ISRC USUM70611445
INDEX 00 03:48:00
FILE "13 Go On With Your Bad Self.wav" WAVE
INDEX 01 00:00:00
TRACK 14 AUDIO
TITLE "Johnny Faraway"
PERFORMER "Eddie Kendricks"
ISRC USUM70611455
INDEX 00 02:27:38
FILE "14 Johnny Faraway.wav" WAVE
INDEX 01 00:00:00
TRACK 15 AUDIO
TITLE "If I Can't Love You Then I Can't Love Me"
PERFORMER "Eddie Kendricks"
ISRC USUM70611453
INDEX 00 03:22:06
FILE "15 If I Can't Love You Then I Can't Love Me.wav" WAVE
INDEX 01 00:00:00
TRACK 16 AUDIO
TITLE "Nothing Is Real"
PERFORMER "Eddie Kendricks"
ISRC USUM70611460
INDEX 00 03:15:59
FILE "16 Nothing Is Real.wav" WAVE
INDEX 01 00:00:00
TRACK 17 AUDIO
TITLE "I'll Be Your Servant"
PERFORMER "Eddie Kendricks"
ISRC USUM70611450
INDEX 00 02:34:31
FILE "17 I'll Be Your Servant.wav" WAVE
INDEX 01 00:00:00
 
Лог проверки качества
AUDIOCHECKER v2.0 beta (build 457) - by Dester - opdester@freemail.hu
~~~~~~~~~~~~~~~~~~~~~~~~~~~~~~~~~~
Started at: среда, 08. 04. 2015. - 12:51.04
17 files found
01 -===- L:\Kendricks, Eddie\(2006) The Thin Man - The Motown Solo Albums, Vol. 2\CD 3\01 Something Shady (Is Going On).flac
Extracted successfully
Conclusion: this track is CDDA with probability 100%
Tempfile successfully deleted.
02 -===- L:\Kendricks, Eddie\(2006) The Thin Man - The Motown Solo Albums, Vol. 2\CD 3\02 Baby.flac
Extracted successfully
Conclusion: this track is CDDA with probability 100%
Tempfile successfully deleted.
03 -===- L:\Kendricks, Eddie\(2006) The Thin Man - The Motown Solo Albums, Vol. 2\CD 3\03 I Want To Live (My Life With You).flac
Extracted successfully
Conclusion: this track is CDDA with probability 100%
Tempfile successfully deleted.
04 -===- L:\Kendricks, Eddie\(2006) The Thin Man - The Motown Solo Albums, Vol. 2\CD 3\04 You Got It.flac
Extracted successfully
Conclusion: this track is CDDA with probability 100%
Tempfile successfully deleted.
05 -===- L:\Kendricks, Eddie\(2006) The Thin Man - The Motown Solo Albums, Vol. 2\CD 3\05 Intimate Friends.flac
Extracted successfully
Conclusion: this track is CDDA with probability 100%
Tempfile successfully deleted.
06 -===- L:\Kendricks, Eddie\(2006) The Thin Man - The Motown Solo Albums, Vol. 2\CD 3\06 Diamond Girl.flac
Extracted successfully
Conclusion: this track is CDDA with probability 100%
Tempfile successfully deleted.
07 -===- L:\Kendricks, Eddie\(2006) The Thin Man - The Motown Solo Albums, Vol. 2\CD 3\07 Then Came You.flac
Extracted successfully
Conclusion: this track is CDDA with probability 100%
Tempfile successfully deleted.
08 -===- L:\Kendricks, Eddie\(2006) The Thin Man - The Motown Solo Albums, Vol. 2\CD 3\08 I'll Have To Let You Go.flac
Extracted successfully
Conclusion: this track is CDDA with probability 100%
Tempfile successfully deleted.
09 -===- L:\Kendricks, Eddie\(2006) The Thin Man - The Motown Solo Albums, Vol. 2\CD 3\09 California Woman.flac
Extracted successfully
Conclusion: this track is CDDA with probability 100%
Tempfile successfully deleted.
10 -===- L:\Kendricks, Eddie\(2006) The Thin Man - The Motown Solo Albums, Vol. 2\CD 3\10 Let Now Be Now, Let Love Be Love.flac
Extracted successfully
Conclusion: this track is CDDA with probability 99%
Tempfile successfully deleted.
11 -===- L:\Kendricks, Eddie\(2006) The Thin Man - The Motown Solo Albums, Vol. 2\CD 3\11 I Need You More Now Than Ever.flac
Extracted successfully
Conclusion: this track is CDDA with probability 100%
Tempfile successfully deleted.
12 -===- L:\Kendricks, Eddie\(2006) The Thin Man - The Motown Solo Albums, Vol. 2\CD 3\12 That's All Behind You.flac
Extracted successfully
Conclusion: this track is CDDA with probability 100%
Tempfile successfully deleted.
13 -===- L:\Kendricks, Eddie\(2006) The Thin Man - The Motown Solo Albums, Vol. 2\CD 3\13 Go On With Your Bad Self.flac
Extracted successfully
Conclusion: this track is CDDA with probability 100%
Tempfile successfully deleted.
14 -===- L:\Kendricks, Eddie\(2006) The Thin Man - The Motown Solo Albums, Vol. 2\CD 3\14 Johnny Faraway.flac
Extracted successfully
Conclusion: this track is CDDA with probability 100%
Tempfile successfully deleted.
15 -===- L:\Kendricks, Eddie\(2006) The Thin Man - The Motown Solo Albums, Vol. 2\CD 3\15 If I Can't Love You Then I Can't Love Me.flac
Extracted successfully
Conclusion: this track is CDDA with probability 100%
Tempfile successfully deleted.
16 -===- L:\Kendricks, Eddie\(2006) The Thin Man - The Motown Solo Albums, Vol. 2\CD 3\16 Nothing Is Real.flac
Extracted successfully
Conclusion: this track is CDDA with probability 100%
Tempfile successfully deleted.
17 -===- L:\Kendricks, Eddie\(2006) The Thin Man - The Motown Solo Albums, Vol. 2\CD 3\17 I'll Be Your Servant.flac
Extracted successfully
Conclusion: this track is CDDA with probability 100%
Tempfile successfully deleted.
Finished at: среда, 08. 04. 2015. - 12:56.19 (operation time: 0:05.15)
Приватный:
Нет (DHT включён)
Размер:
1.55 Гб (1,666,409,915 байт) » файлов: 97
Участники:
0 раздают, 0 качают (0 участников всего)
Внешние участники:
5 раздают, 1 качают (6 участников всего) [ Обновить ]
Есть вопросы - пишите личное сообщение пользователю M0p94ok.
05:12
94
Нет комментариев. Ваш будет первым!