Поиск

(Neo-Soul, Soul, Urban, Funk) [EP] Con Brio (Ziek McCarter) - Kiss The Sun - 2015, FLAC (tracks), lossless

Треклист:
Con Brio / Kiss The Sun
Жанр: Neo-Soul, Soul, Urban, Funk
Носитель: EP
Год издания: 2015
Издатель (лейбл): Burning House Records
Аудиокодек: FLAC (*.flac)
Тип рипа: tracks
Битрейт аудио: lossless
Продолжительность: 00:27:39
Источник (релизер): RantNRave
Наличие сканов в содержимом раздачи: нет
Треклист:
1.Give It All 04:02
2.Never Be The Same 04:47
3.California Cowboy 03:09
4.Kiss The Sun 06:00
5.Temptation's Talking 04:31
6.A Sex Supreme 05:08
 
Лог создания рипа
CUERipper v2.1.5 Copyright (C) 2008-13 Grigory Chudov
EAC extraction logfile from 25. February 2015, 15:37
Con Brio / Kiss The Sun
Used drive : hp CDDVDW SU-208FB Adapter: 1 ID: 0
Read mode : Secure
Utilize accurate stream : Yes
Defeat audio cache : Yes
Make use of C2 pointers : No
Read offset correction : 6
Overread into Lead-In and Lead-Out : No
Fill up missing offset samples with silence : Yes
Delete leading and trailing silent blocks : No
Null samples used in CRC calculations : Yes
Used interface : Native Win32 interface for Win NT & 2000
Gap handling : Appended to previous track
Used output format : Internal WAV Routines
Sample format : 44.100 Hz; 16 Bit; Stereo
TOC of the extracted CD
Track | Start | Length | Start sector | End sector
---------------------------------------------------------
1 | 0:00.00 | 4:02.59 | 0 | 18208
2 | 4:02.59 | 4:47.29 | 18209 | 39762
3 | 8:50.13 | 3:09.03 | 39763 | 53940
4 | 11:59.16 | 6:00.02 | 53941 | 80942
5 | 17:59.18 | 4:31.14 | 80943 | 101281
6 | 22:30.32 | 5:08.22 | 101282 | 124403
Track 1
Filename C:\Users\RantNRave\Music\Con Brio\01. Give It All.wav
Pre-gap length 0:00:02.00
Peak level 96.6 %
Track quality 100.0 %
Test CRC 55950096
Copy CRC 55950096
Accurately ripped (confidence 1) [61321B6D]
Copy OK
Track 2
Filename C:\Users\RantNRave\Music\Con Brio\02. Never Be The Same.wav
Peak level 96.6 %
Track quality 100.0 %
Test CRC B2A04484
Copy CRC B2A04484
Accurately ripped (confidence 1) [4A71E618]
Copy OK
Track 3
Filename C:\Users\RantNRave\Music\Con Brio\03. California Cowboy.wav
Peak level 96.6 %
Track quality 100.0 %
Test CRC 85A79FCE
Copy CRC 85A79FCE
Accurately ripped (confidence 1) [5B925F3E]
Copy OK
Track 4
Filename C:\Users\RantNRave\Music\Con Brio\04. Kiss The Sun.wav
Peak level 96.6 %
Track quality 100.0 %
Test CRC CCB9329A
Copy CRC CCB9329A
Accurately ripped (confidence 1) [198A917E]
Copy OK
Track 5
Filename C:\Users\RantNRave\Music\Con Brio\05. Temptation's Talking.wav
Peak level 96.6 %
Track quality 100.0 %
Test CRC E75C80AF
Copy CRC E75C80AF
Accurately ripped (confidence 1) [87C40077]
Copy OK
Track 6
Filename C:\Users\RantNRave\Music\Con Brio\06. A Sex Surpreme.wav
Peak level 96.6 %
Track quality 100.0 %
Test CRC 8A5186A4
Copy CRC 8A5186A4
Accurately ripped (confidence 1) [7D05FD3D]
Copy OK
All tracks accurately ripped
No errors occurred
End of status report
 
Об исполнителе (группе)
 
Об альбоме (сборнике)
 
Состав
Ziek McCarter - Vocals
Benjamin Andrews - Guitars
Micah Dubreuil - Keyboards
Jonathan Kirchner - Bass
Andrew Laubacher - Drums
Marcus Stephens - Saxophones
Mike Olmos - Trumpet (tracks 2,3,4,5)
Henry Hung - Trumpet (tracks 1,6)
Приватный:
Нет (DHT включён)
Размер:
178.76 Мб (187,445,125 байт) » файлов: 10
Участники:
0 раздают, 0 качают (0 участников всего)
Внешние участники:
2 раздают, 1 качают (3 участников всего) [ Обновить ]
Есть вопросы - пишите личное сообщение пользователю M0p94ok.
05:12
53
Нет комментариев. Ваш будет первым!