Поиск

(Funky Soul) [CD] Curtis Mayfield - Back To The World (Remastering) (1973) - 2014, FLAC (image+.cue), lossless

(Funky Soul) [CD] Curtis Mayfield - Back To The World (Remastering) (1973) - 2014, FLAC (image+.cue), lossless
Треклист:
Curtis Mayfield / Back To The World (Remastering) (1973)
Жанр: Funky Soul
Носитель: CD
Страна-производитель диска (релиза): Japan
Год издания: 2014
Издатель (лейбл): Curtom/WEA
Номер по каталогу: WPCR-27751
Страна исполнителя (группы): USA
Аудиокодек: FLAC (*.flac)
Тип рипа: image+.cue
Битрейт аудио: lossless
Продолжительность: 36:11
Источник (релизер): Од'Родр Рип
Наличие сканов в содержимом раздачи: да
Треклист:
01. Back To The World 06:50
02. Future Shock 05:20
03. Right On For The Darkness 07:31
04. Future Song(Love A Good Woman, Love A Good Man) 02:54
05. If I Were Only A Child Again 05:17
06. Can't Say Nothin' 03:18
07. Keep On Trippin' 04:59
 
Лог создания рипа
Exact Audio Copy V1.0 beta 3 from 29. August 2011
Отчёт EAC об извлечении, выполненном 10. апреля 2015, 14:02
Curtis Mayfield / Back To The World
Дисковод: Optiarc DVD RW AD-7203S Adapter: 3 ID: 1
Режим чтения : Достоверность
Использование точного потока : Да
Отключение кэша аудио : Да
Использование указателей C2 : Нет
Коррекция смещения при чтении : 48
Способность читать области Lead-in и Lead-out : Нет
Заполнение пропущенных сэмплов тишиной : Да
Удаление блоков с тишиной в начале и конце : Нет
При вычислениях CRC использовались нулевые сэмплы : Да
Интерфейс : Встроенный Win32-интерфейс для Win NT/2000
Выходной формат : Пользовательский кодировщик
Выбранный битрейт : 128 kBit/s
Качество : Высокий
Добавление ID3-тега : Нет
Утилита сжатия : C:\Program Files\Exact Audio Copy\Flac\flac.exe
Дополнительные параметры : -V -8 -T "Date=%year%" -T "Genre=%genre%" %source%
TOC извлечённого CD
Трек | Старт | Длительность | Начальный сектор | Конечный сектор
---------------------------------------------------------------------
1 | 0:00.00 | 6:49.74 | 0 | 30748
2 | 6:49.74 | 5:20.21 | 30749 | 54769
3 | 12:10.20 | 7:30.53 | 54770 | 88572
4 | 19:40.73 | 2:54.15 | 88573 | 101637
5 | 22:35.13 | 5:17.27 | 101638 | 125439
6 | 27:52.40 | 3:18.21 | 125440 | 140310
7 | 31:10.61 | 4:59.24 | 140311 | 162759
Характеристики диапазона извлечения и сообщения об ошибках
Выбранный диапазон
Имя файла F:\EAC\1973-Curtis Mayfield - Back To The World\1973-Curtis Mayfield - Back To The World\1973-Curtis Mayfield - Back To The World.wav
Пиковый уровень 100.0 %
Скорость извлечения 3.5 X
Качество диапазона 100.0 %
CRC теста CF31D124
CRC копии CF31D124
Копирование... OK
Ошибок не произошло
AccurateRip: сводка
Трек 1 отсутствует в базе данных
Трек 2 отсутствует в базе данных
Трек 3 отсутствует в базе данных
Трек 4 отсутствует в базе данных
Трек 5 отсутствует в базе данных
Трек 6 отсутствует в базе данных
Трек 7 отсутствует в базе данных
Ни одного трека нет в базе AccurateRip
Конец отчёта
==== Контрольная сумма отчёта A7198ADBBBE3F4361F1E8183DD361D61F81619AAB351C053FA2834C5B384C1AD ====
 
Содержание индексной карты (.CUE)
REM GENRE Soul
REM DISCID 54087A07
REM COMMENT "ExactAudioCopy v1.0b3"
PERFORMER "Curtis Mayfield"
TITLE "Back To The World"
FILE "1973-Curtis Mayfield - Back To The World.flac" WAVE
TRACK 01 AUDIO
TITLE "Back To The World"
PERFORMER "Curtis Mayfield"
INDEX 01 00:00:00
TRACK 02 AUDIO
TITLE "Future Shock"
PERFORMER "Curtis Mayfield"
INDEX 00 06:46:55
INDEX 01 06:49:74
TRACK 03 AUDIO
TITLE "Right On For The Darkness"
PERFORMER "Curtis Mayfield"
INDEX 00 12:07:67
INDEX 01 12:10:20
TRACK 04 AUDIO
TITLE "Future Song(Love A Good Woman, Love A Good Man)"
PERFORMER "Curtis Mayfield"
INDEX 00 19:37:61
INDEX 01 19:40:73
TRACK 05 AUDIO
TITLE "If I Were Only A Child Again"
PERFORMER "Curtis Mayfield"
INDEX 00 22:33:18
INDEX 01 22:35:13
TRACK 06 AUDIO
TITLE "Can't Say Nothin'"
PERFORMER "Curtis Mayfield"
INDEX 00 27:49:60
INDEX 01 27:52:40
TRACK 07 AUDIO
TITLE "Keep On Trippin'"
PERFORMER "Curtis Mayfield"
INDEX 00 31:09:00
INDEX 01 31:10:61
 
Скриншот спектра частот
 
Об альбоме (сборнике)
Великий период Кёртиса.
Истории-зарисовки на улицах "поствьетнамской" Америки, полные горькой иронии, сарказма, где один Ад сменяется другим, рассказанные великим рассказчиком Кёртисом Мейфилдом в своей манере в приправе из упругого фанки-соула.
Приватный:
Нет (DHT включён)
Размер:
217.11 Мб (227,653,843 байт) » файлов: 14
Участники:
0 раздают, 0 качают (0 участников всего)
Внешние участники:
3 раздают, 1 качают (4 участников всего) [ Обновить ]
Есть вопросы - пишите личное сообщение пользователю M0p94ok.
05:13
57
Нет комментариев. Ваш будет первым!