Поиск

(Funk, Soul, R&B) [CD] The Gap Band - Ain't Nothin' But A Party - 1995, FLAC (image+.cue), lossless

Треклист:
The Gap Band / Ain't Nothin' But A Party
Жанр: Funk, Soul, R&B
Носитель: CD
Страна-производитель диска (релиза): USA
Год издания: 1995
Издатель (лейбл): Raging Bull Records
Номер по каталогу: RB 2003
Страна исполнителя (группы): USA
Аудиокодек: FLAC (*.flac)
Тип рипа: image+.cue
Битрейт аудио: lossless
Продолжительность: 46:50
Источник (релизер): BlondStyle
Наличие сканов в содержимом раздачи: да
Треклист:
01. Where's My Glasses? (00:08)
(Charlie Wilson)
02. First Lover (04:47)
(Amanda Rushing / Charlie Wilson / Val Young)
03. Closin' The G.A.P. (05:26)
(D-Low / Paris Turner)
04. Got It Goin' On (06:16)
(Raymond Calhoun / Charlie Wilson / Val Young)
05. You Dropped A Bomb On Me (The Remix) (03:55)
(Lonnie Simmons / Rudy Taylor / Charlie Wilson)
06. Love At Your Fingatips (04:50)
(Deyon Dobson)
07. Shake Dat Booty (04:22)
(Deyon Dobson / Charlie Wilson / Sue Ann Carwell / Lance "Jabaddi" Whitfield)
08. Here We Go (00:31)
(Charlie Wilson / Ronnie Wilson / Robert Wilson)
09. Over The Funkin' Hill (featuring George Clinton) (04:21)
(Charlie Wilson / Ronnie Wilson / Robert Wilson)
10. Closin' The G.A.P. (Extended Club Edit) (06:39)
(D-Low / Paris Turner)
11. Why You Wanna Funk Around (04:39)
(Mobb / Soulful Locco / D-Low / Paris Turner / Fade / Charlie Wilson)
12. Got It Goin' On, Pt. II (00:51)
(Raymond Calhoun / Ronnie Wilson)
 
Лог создания рипа
Exact Audio Copy V1.0 beta 3 from 29. August 2011
EAC extraction logfile from 8. October 2012, 20:51
The Gap Band / Ain't Nothin' But A Party
Used drive : ATAPI DVD DW 8X16X8X16 Adapter: 0 ID: 2
Read mode : Secure
Utilize accurate stream : Yes
Defeat audio cache : Yes
Make use of C2 pointers : No
Read offset correction : 618
Overread into Lead-In and Lead-Out : No
Fill up missing offset samples with silence : Yes
Delete leading and trailing silent blocks : No
Null samples used in CRC calculations : Yes
Used interface : Native Win32 interface for Win NT & 2000
Used output format : Internal WAV Routines
Sample format : 44.100 Hz; 16 Bit; Stereo
TOC of the extracted CD
Track | Start | Length | Start sector | End sector
---------------------------------------------------------
1 | 0:00.00 | 0:08.32 | 0 | 631
2 | 0:08.32 | 4:47.08 | 632 | 22164
3 | 4:55.40 | 5:26.10 | 22165 | 46624
4 | 10:21.50 | 6:16.35 | 46625 | 74859
5 | 16:38.10 | 3:55.57 | 74860 | 92541
6 | 20:33.67 | 4:50.18 | 92542 | 114309
7 | 25:24.10 | 4:22.57 | 114310 | 134016
8 | 29:46.67 | 0:31.38 | 134017 | 136379
9 | 30:18.30 | 4:21.67 | 136380 | 156021
10 | 34:40.22 | 6:39.10 | 156022 | 185956
11 | 41:19.32 | 4:39.45 | 185957 | 206926
12 | 45:59.02 | 0:51.20 | 206927 | 210771
Range status and errors
Selected range
Filename C:\BlondStyle\The Gap Band - Ain't Nothin' But A Party.wav
Peak level 98.8 %
Extraction speed 7.5 X
Range quality 100.0 %
Test CRC 46E6FB07
Copy CRC 46E6FB07
Copy OK
No errors occurred
AccurateRip summary
Track 1 accurately ripped (confidence 2) [49DA08D1] (AR v1)
Track 2 accurately ripped (confidence 2) [EA6C4D4C] (AR v1)
Track 3 accurately ripped (confidence 2) [FAFB7CFD] (AR v1)
Track 4 accurately ripped (confidence 2) [AA583DD0] (AR v1)
Track 5 accurately ripped (confidence 2) [C4BB6AAF] (AR v1)
Track 6 accurately ripped (confidence 2) [1E162B34] (AR v1)
Track 7 accurately ripped (confidence 2) [0A9BF328] (AR v1)
Track 8 accurately ripped (confidence 2) [CBE4F0B3] (AR v1)
Track 9 accurately ripped (confidence 2) [E463EC5C] (AR v1)
Track 10 accurately ripped (confidence 2) [C48D310D] (AR v1)
Track 11 accurately ripped (confidence 2) [6CB3161E] (AR v1)
Track 12 not present in database
11 track(s) accurately ripped
1 track(s) not present in the AccurateRip database
Some tracks could not be verified as accurate
End of status report
==== Log checksum 2A262ACE52B3A625FFBFEF12A75E67463A71A26BA1116265B66589BC0F91DAEF ====
 
Содержание индексной карты (.CUE)
REM GENRE "R&B, Funk, Quiet Storm"
REM DATE 1995
REM DISCID 880AFA0C
REM COMMENT "ExactAudioCopy v1.0b3"
PERFORMER "The Gap Band"
TITLE "Ain't Nothin' But A Party"
FILE "The Gap Band - Ain't Nothin' But A Party.flac" WAVE
TRACK 01 AUDIO
TITLE "Where's My Glasses?"
PERFORMER "The Gap Band"
INDEX 01 00:00:00
TRACK 02 AUDIO
TITLE "First Lover"
PERFORMER "The Gap Band"
FLAGS DCP
INDEX 01 00:08:32
TRACK 03 AUDIO
TITLE "Closin' The G.A.P."
PERFORMER "The Gap Band"
FLAGS DCP
INDEX 01 04:55:40
TRACK 04 AUDIO
TITLE "Got It Goin' On"
PERFORMER "The Gap Band"
FLAGS DCP
INDEX 01 10:21:50
TRACK 05 AUDIO
TITLE "You Dropped A Bomb On Me (The Remix)"
PERFORMER "The Gap Band"
FLAGS DCP
INDEX 01 16:38:10
TRACK 06 AUDIO
TITLE "Love At Your Fingatips"
PERFORMER "The Gap Band"
FLAGS DCP
INDEX 01 20:33:67
TRACK 07 AUDIO
TITLE "Shake Dat Booty"
PERFORMER "The Gap Band"
FLAGS DCP
INDEX 01 25:24:10
TRACK 08 AUDIO
TITLE "Here We Go"
PERFORMER "The Gap Band"
FLAGS DCP
INDEX 01 29:46:67
TRACK 09 AUDIO
TITLE "Over The Funkin' Hill (featuring George Clinton)"
PERFORMER "The Gap Band"
FLAGS DCP
INDEX 01 30:18:30
TRACK 10 AUDIO
TITLE "Closin' The G.A.P. (Extended Club Edit)"
PERFORMER "The Gap Band"
FLAGS DCP
INDEX 01 34:40:22
TRACK 11 AUDIO
TITLE "Why You Wanna Funk Around"
PERFORMER "The Gap Band"
FLAGS DCP
INDEX 01 41:19:32
TRACK 12 AUDIO
TITLE "Got It Goin' On Part II"
PERFORMER "The Gap Band"
FLAGS DCP
INDEX 01 45:59:02
 
Лог проверки качества
-----------------------
DON'T MODIFY THIS FILE
-----------------------
PERFORMER: auCDtect Task Manager, ver. 1.6.0 RC1 build 1.6.0.1
Copyright (c) 2008-2010 y-soft. All rights reserved
http://y-soft.org
ANALYZER: auCDtect: CD records authenticity detector, version 0.8.2
Copyright (c) 2004 Oleg Berngardt. All rights reserved.
Copyright (c) 2004 Alexander Djourik. All rights reserved.
FILE: The Gap Band - Ain't Nothin' But A Party.flac
Size: 338535247 Hash: 11CA217106F123615B039171BFC76873 Accuracy: -m0
Conclusion: CDDA 100%
Signature: EC83756F06FF618AB11CC59F9EEC644DF0B6EF20
 
Об исполнителе (группе)
 
Об альбоме (сборнике)
Ain't Nothin But a Party is an album by The Gap Band, released in 1995 on Raging Bull Records. This album demonstrates that the Gap Band still are formidable, powerful musicians nearly 20 years after their first record. However, that technical skill isn't enough to make the album a compelling listen. Though they play very well, the group has a difficult time coming up with engaging grooves or memorable songs. The overly slick production doesn't help matters, either. Combined, the meandering playing and the polished production makes Ain't Nothing But a Party one of the least funky records the Gap Band ever released.
Приватный:
Нет (DHT включён)
Размер:
332.19 Мб (348,326,777 байт) » файлов: 12
Участники:
0 раздают, 0 качают (0 участников всего)
Внешние участники:
2 раздают, 1 качают (3 участников всего) [ Обновить ]
Есть вопросы - пишите личное сообщение пользователю M0p94ok.
05:10
56
Нет комментариев. Ваш будет первым!