Поиск

(Jazz-Pop, Funk, R&B, Soul) [CD] Camera Soul - Коллекция (3 Альбома) - 2013-2017, FLAC (image+.cue), lossless

(Jazz-Pop, Funk, R&B, Soul) [CD] Camera Soul - Коллекция (3 Альбома) - 2013-2017, FLAC (image+.cue), lossless
Треклист:


Жанр: Jazz-Pop, Funk, R&B, Soul
Носитель: CD
Страна-производитель диска (релиза): Italy
Год издания: 2013 - 2017
Издатель (лейбл): Azzurra Music
Страна исполнителя (группы): Italy
Аудиокодек: FLAC (*.flac)
Тип рипа: image+.cue
Битрейт аудио: lossless
Продолжительность:
Источник (релизер): ©СЁРФ-Маrаtones aka izia1956
Наличие сканов в содержимом раздачи: да
10 Апреля 2017 года добавленны альбомы:
2013 - Not for Ordinary People (Azzurra Music-TRI1179)
2017 - Connections (PlayAudio/Azzurra Music-TRI1255)
Желающие могут ознакомиться.
 
2013 - Not for Ordinary People (Azzurra Music-TRI1179) - 56:33

01. Not for Ordinary People (4:35)
02. Mama (4:47)
03. For a Lifetime (4:36)
04. I Don't Like Flowers (3:46)
05. She (4:18)
06. My Heart (4:28)
07. Time Fades Away (4:54)
08. Full of Me (5:28)
09. Nobody Else (3:55)
10. I'm a Fool (4:03)
11. Locked Inside (5:56)
12. The Happiest Day (5:07)
13. Not for Ordinary People (Reprise) (0:40)

 
Лог создания рипа
Exact Audio Copy V1.0 beta 3 from 29. August 2011
Отчёт EAC об извлечении, выполненном 3. апреля 2017, 20:54
Camera Soul / Not for Ordinary People
Дисковод: ATAPI iHAS424 A Adapter: 0 ID: 0
Режим чтения : Достоверность
Использование точного потока : Да
Отключение кэша аудио : Да
Использование указателей C2 : Нет
Коррекция смещения при чтении : 6
Способность читать области Lead-in и Lead-out : Нет
Заполнение пропущенных сэмплов тишиной : Да
Удаление блоков с тишиной в начале и конце : Нет
При вычислениях CRC использовались нулевые сэмплы : Да
Интерфейс : Установленный внешний ASPI-интерфейс
Выходной формат : Пользовательский кодировщик
Выбранный битрейт : 1024 kBit/s
Качество : Высокий
Добавление ID3-тега : Нет
Утилита сжатия : C:\Program Files\Exact Audio Copy\FLAC\FLAC.EXE
Дополнительные параметры : -8 -V -T "ARTIST=%artist%" -T "ALBUM=%albumtitle%" -T "DATE=%year%" -T "GENRE=%genre%" -T "COMMENT=ripped by izia1956" %source%
TOC извлечённого CD
Трек | Старт | Длительность | Начальный сектор | Конечный сектор
---------------------------------------------------------------------
1 | 0:00.00 | 4:34.69 | 0 | 20618
2 | 4:34.69 | 4:47.31 | 20619 | 42174
3 | 9:22.25 | 4:35.69 | 42175 | 62868
4 | 13:58.19 | 3:46.24 | 62869 | 79842
5 | 17:44.43 | 4:17.62 | 79843 | 99179
6 | 22:02.30 | 4:28.02 | 99180 | 119281
7 | 26:30.32 | 4:53.69 | 119282 | 141325
8 | 31:24.26 | 5:28.20 | 141326 | 165945
9 | 36:52.46 | 3:54.51 | 165946 | 183546
10 | 40:47.22 | 4:03.05 | 183547 | 201776
11 | 44:50.27 | 5:55.62 | 201777 | 228463
12 | 50:46.14 | 5:07.02 | 228464 | 251490
13 | 55:53.16 | 0:40.11 | 251491 | 254501
Характеристики диапазона извлечения и сообщения об ошибках
Выбранный диапазон
Имя файла D:\BitComet\Camera Soul (flac)\2013 - Not for Ordinary People\Camera Soul - Not for Ordinary People.wav
Пиковый уровень 98.8 %
Скорость извлечения 6.2 X
Качество диапазона 99.9 %
CRC теста 35FDFA0B
CRC копии 35FDFA0B
Копирование... OK
Ошибок не произошло
AccurateRip: сводка
Трек 1 отсутствует в базе данных
Трек 2 отсутствует в базе данных
Трек 3 отсутствует в базе данных
Трек 4 отсутствует в базе данных
Трек 5 отсутствует в базе данных
Трек 6 отсутствует в базе данных
Трек 7 отсутствует в базе данных
Трек 8 отсутствует в базе данных
Трек 9 отсутствует в базе данных
Трек 10 отсутствует в базе данных
Трек 11 отсутствует в базе данных
Трек 12 отсутствует в базе данных
Трек 13 отсутствует в базе данных
Ни одного трека нет в базе AccurateRip
Конец отчёта
==== Контрольная сумма отчёта FC930E33908301B4B7E119AFC1B6C0BB3C95FE4C0A2AD2550503F37285C29C85 ====
 
Содержание индексной карты (.CUE)
REM GENRE "Jazz-Pop, Female Vocal, Funk, Disco"
REM DATE 2013
REM DISCID B90D410D
REM COMMENT "ExactAudioCopy v1.0b3"
PERFORMER "Camera Soul"
TITLE "Not for Ordinary People"
FILE "Camera Soul - Not for Ordinary People.flac" WAVE
TRACK 01 AUDIO
TITLE "Not for Ordinary People"
PERFORMER "Camera Soul"
INDEX 01 00:00:00
TRACK 02 AUDIO
TITLE "Mama"
PERFORMER "Camera Soul"
INDEX 00 04:34:68
INDEX 01 04:34:69
TRACK 03 AUDIO
TITLE "For a Lifetime"
PERFORMER "Camera Soul"
INDEX 00 09:22:24
INDEX 01 09:22:25
TRACK 04 AUDIO
TITLE "I Don't Like Flowers"
PERFORMER "Camera Soul"
INDEX 00 13:58:18
INDEX 01 13:58:19
TRACK 05 AUDIO
TITLE "She"
PERFORMER "Camera Soul"
INDEX 00 17:44:42
INDEX 01 17:44:43
TRACK 06 AUDIO
TITLE "My Heart"
PERFORMER "Camera Soul"
INDEX 00 22:02:29
INDEX 01 22:02:30
TRACK 07 AUDIO
TITLE "Time Fades Away"
PERFORMER "Camera Soul"
INDEX 00 26:30:31
INDEX 01 26:30:32
TRACK 08 AUDIO
TITLE "Full of Me"
PERFORMER "Camera Soul"
INDEX 00 31:24:24
INDEX 01 31:24:26
TRACK 09 AUDIO
TITLE "Nobody Else"
PERFORMER "Camera Soul"
INDEX 00 36:52:45
INDEX 01 36:52:46
TRACK 10 AUDIO
TITLE "I'm a Fool"
PERFORMER "Camera Soul"
INDEX 01 40:47:22
TRACK 11 AUDIO
TITLE "Locked Inside"
PERFORMER "Camera Soul"
INDEX 01 44:50:27
TRACK 12 AUDIO
TITLE "The Happiest Day"
PERFORMER "Camera Soul"
INDEX 00 50:46:13
INDEX 01 50:46:14
TRACK 13 AUDIO
TITLE "Not for Ordinary People (Reprise)"
PERFORMER "Camera Soul"
INDEX 00 55:53:15
INDEX 01 55:53:16
 
2015 - Dress Code (Azzurra Music-TRI1211) - 53:55

01. The Purpose (3:09)
02. Bring Me Back (3:12)
03. More and More (4:00)
04. This Rain (4:18)
05. Dress Code (3:50)
06. Push Play (4:00)
07. Glow (3:23)
08. You Think You Know About Love (4:26)
09. Eu Quero Sambar (4:00)
10. A Day With You (2:54)
11. The Colours of Music (3:54)
12. Around the World (4:51)
13. Scent of Wisteria (3:26)
14. Imperfect Rose (4:26)

 
Лог создания рипа
Exact Audio Copy V1.0 beta 3 from 29. August 2011
Отчёт EAC об извлечении, выполненном 3. апреля 2017, 12:01
Camera Soul / Dress Code
Дисковод: PLEXTOR DVDR PX-880SA Adapter: 1 ID: 0
Режим чтения : Достоверность
Использование точного потока : Да
Отключение кэша аудио : Да
Использование указателей C2 : Нет
Коррекция смещения при чтении : 6
Способность читать области Lead-in и Lead-out : Нет
Заполнение пропущенных сэмплов тишиной : Да
Удаление блоков с тишиной в начале и конце : Нет
При вычислениях CRC использовались нулевые сэмплы : Да
Интерфейс : Установленный внешний ASPI-интерфейс
Выходной формат : Пользовательский кодировщик
Выбранный битрейт : 1024 kBit/s
Качество : Высокий
Добавление ID3-тега : Нет
Утилита сжатия : C:\Program Files\Exact Audio Copy\FLAC\FLAC.EXE
Дополнительные параметры : -8 -V -T "ARTIST=%artist%" -T "ALBUM=%albumtitle%" -T "DATE=%year%" -T "GENRE=%genre%" -T "COMMENT=ripped by izia1956" %source%
TOC извлечённого CD
Трек | Старт | Длительность | Начальный сектор | Конечный сектор
---------------------------------------------------------------------
1 | 0:00.00 | 3:09.60 | 0 | 14234
2 | 3:09.60 | 3:12.45 | 14235 | 28679
3 | 6:22.30 | 4:00.22 | 28680 | 46701
4 | 10:22.52 | 4:18.05 | 46702 | 66056
5 | 14:40.57 | 3:50.71 | 66057 | 83377
6 | 18:31.53 | 4:00.01 | 83378 | 101378
7 | 22:31.54 | 3:23.12 | 101379 | 116615
8 | 25:54.66 | 4:26.56 | 116616 | 136621
9 | 30:21.47 | 4:00.56 | 136622 | 154677
10 | 34:22.28 | 2:54.42 | 154678 | 167769
11 | 37:16.70 | 3:54.16 | 167770 | 185335
12 | 41:11.11 | 4:51.66 | 185336 | 207226
13 | 46:03.02 | 3:26.43 | 207227 | 222719
14 | 49:29.45 | 4:26.16 | 222720 | 242685
Характеристики диапазона извлечения и сообщения об ошибках
Выбранный диапазон
Имя файла D:\BitComet\Camera Soul (flac)\2015 - Dress Code\Camera Soul - Dress Code.wav
Пиковый уровень 97.7 %
Скорость извлечения 2.9 X
Качество диапазона 100.0 %
CRC теста 3E2381B6
CRC копии 3E2381B6
Копирование... OK
Ошибок не произошло
AccurateRip: сводка
Трек 1 : извлечено точно (доверие 2) [34AC7C39] (AR v2)
Трек 2 : извлечено точно (доверие 2) [A5CA99A2] (AR v2)
Трек 3 : извлечено точно (доверие 2) [9BE9D6CA] (AR v2)
Трек 4 : извлечено точно (доверие 2) [0CA2A84B] (AR v2)
Трек 5 : извлечено точно (доверие 2) [389F120E] (AR v2)
Трек 6 : извлечено точно (доверие 2) [E74B5BAC] (AR v2)
Трек 7 : извлечено точно (доверие 2) [56F8D6FC] (AR v2)
Трек 8 : извлечено точно (доверие 2) [08F571FF] (AR v2)
Трек 9 : извлечено точно (доверие 2) [F95E57EB] (AR v2)
Трек 10 : извлечено точно (доверие 2) [E4905056] (AR v2)
Трек 11 : извлечено точно (доверие 2) [D06519BA] (AR v2)
Трек 12 : извлечено точно (доверие 2) [E722F6EA] (AR v2)
Трек 13 : извлечено точно (доверие 2) [A2B19E74] (AR v2)
Трек 14 : извлечено точно (доверие 2) [25E3E8DB] (AR v2)
Все треки извлечены точно
Конец отчёта
==== Контрольная сумма отчёта 62BDEA62463C4B8D60C1550A71E46C6A6ECA8ED9BA342F5D9C3B7268D7EAEC42 ====
 
Содержание индексной карты (.CUE)
REM GENRE "Jazz-Funk, R&B"
REM DATE 2015
REM DISCID BD0CA30E
REM COMMENT "ExactAudioCopy v1.0b3"
PERFORMER "Camera Soul"
TITLE "Dress Code"
FILE "Camera Soul - Dress Code.flac" WAVE
TRACK 01 AUDIO
TITLE "The Purpose"
PERFORMER "Camera Soul"
INDEX 01 00:00:00
TRACK 02 AUDIO
TITLE "Bring Me Back"
PERFORMER "Camera Soul"
INDEX 01 03:09:60
TRACK 03 AUDIO
TITLE "More and More"
PERFORMER "Camera Soul"
INDEX 01 06:22:30
TRACK 04 AUDIO
TITLE "This Rain"
PERFORMER "Camera Soul"
INDEX 01 10:22:52
TRACK 05 AUDIO
TITLE "Dress Code"
PERFORMER "Camera Soul"
INDEX 01 14:40:57
TRACK 06 AUDIO
TITLE "Push Play"
PERFORMER "Camera Soul"
INDEX 01 18:31:53
TRACK 07 AUDIO
TITLE "Glow"
PERFORMER "Camera Soul"
INDEX 01 22:31:54
TRACK 08 AUDIO
TITLE "You Think You Know About Love"
PERFORMER "Camera Soul"
INDEX 01 25:54:66
TRACK 09 AUDIO
TITLE "Eu Quero Sambar"
PERFORMER "Camera Soul"
INDEX 01 30:21:47
TRACK 10 AUDIO
TITLE "A Day With You"
PERFORMER "Camera Soul"
INDEX 01 34:22:28
TRACK 11 AUDIO
TITLE "The Colours of Music"
PERFORMER "Camera Soul"
INDEX 01 37:16:70
TRACK 12 AUDIO
TITLE "Around the World"
PERFORMER "Camera Soul"
INDEX 01 41:11:11
TRACK 13 AUDIO
TITLE "Scent of Wisteria"
PERFORMER "Camera Soul"
INDEX 01 46:03:02
TRACK 14 AUDIO
TITLE "Imperfect Rose"
PERFORMER "Camera Soul"
INDEX 01 49:29:45
 
2017 - Connections (PlayAudio/Azzurra Music-TRI1255) - 60:58
01. Connections (4:10)
02. Help Yourself (3:16)
03. Black Cat (4:37)
04. Trip (0:09)
05. This Is Not the Right Way (5:50)
06. Never Enough (3:20)
07. Giant Fingers (0:38)
08. Now (3:23)
09. Summer Breeze (4:22)
10. Dark Side (0:37)
11. Love Is a Gift (3:38)
12. The Land of the Living (5:21)
13. Meu Carnaval (4:59)
14. No Such Things (3:23)
15. I Wonder How (4:06)
16. In the Stone (Goodbye Maurice in Memory of M. White) (0:35)
17. Tonight (In This Night) (4:08)
18. Connections (Tom Glide Remix) (4:17)
 
Лог создания рипа
Exact Audio Copy V1.0 beta 3 from 29. August 2011
Отчёт EAC об извлечении, выполненном 3. апреля 2017, 15:50
Camera Soul / Connections
Дисковод: PLEXTOR DVDR PX-880SA Adapter: 1 ID: 0
Режим чтения : Достоверность
Использование точного потока : Да
Отключение кэша аудио : Да
Использование указателей C2 : Нет
Коррекция смещения при чтении : 6
Способность читать области Lead-in и Lead-out : Нет
Заполнение пропущенных сэмплов тишиной : Да
Удаление блоков с тишиной в начале и конце : Нет
При вычислениях CRC использовались нулевые сэмплы : Да
Интерфейс : Установленный внешний ASPI-интерфейс
Выходной формат : Пользовательский кодировщик
Выбранный битрейт : 1024 kBit/s
Качество : Высокий
Добавление ID3-тега : Нет
Утилита сжатия : C:\Program Files\Exact Audio Copy\FLAC\FLAC.EXE
Дополнительные параметры : -8 -V -T "ARTIST=%artist%" -T "ALBUM=%albumtitle%" -T "DATE=%year%" -T "GENRE=%genre%" -T "COMMENT=ripped by izia1956" %source%
TOC извлечённого CD
Трек | Старт | Длительность | Начальный сектор | Конечный сектор
---------------------------------------------------------------------
1 | 0:00.00 | 4:10.43 | 0 | 18792
2 | 4:10.43 | 3:16.19 | 18793 | 33511
3 | 7:26.62 | 4:37.28 | 33512 | 54314
4 | 12:04.15 | 0:09.37 | 54315 | 55026
5 | 12:13.52 | 5:50.56 | 55027 | 81332
6 | 18:04.33 | 3:20.36 | 81333 | 96368
7 | 21:24.69 | 0:38.24 | 96369 | 99242
8 | 22:03.18 | 3:23.70 | 99243 | 114537
9 | 25:27.13 | 4:22.41 | 114538 | 134228
10 | 29:49.54 | 0:37.54 | 134229 | 137057
11 | 30:27.33 | 3:38.00 | 137058 | 153407
12 | 34:05.33 | 5:21.02 | 153408 | 177484
13 | 39:26.35 | 4:59.40 | 177485 | 199949
14 | 44:26.00 | 3:23.67 | 199950 | 215241
15 | 47:49.67 | 4:06.62 | 215242 | 233753
16 | 51:56.54 | 0:35.69 | 233754 | 236447
17 | 52:32.48 | 4:08.37 | 236448 | 255084
18 | 56:41.10 | 4:17.03 | 255085 | 274362
Характеристики диапазона извлечения и сообщения об ошибках
Выбранный диапазон
Имя файла D:\BitComet\Camera Soul (flac)\2017 - Connections\Camera Soul - Connections.wav
Пиковый уровень 98.7 %
Скорость извлечения 2.9 X
Качество диапазона 100.0 %
CRC теста 0BF3EB32
CRC копии 0BF3EB32
Копирование... OK
Ошибок не произошло
AccurateRip: сводка
Трек 1 отсутствует в базе данных
Трек 2 отсутствует в базе данных
Трек 3 отсутствует в базе данных
Трек 4 отсутствует в базе данных
Трек 5 отсутствует в базе данных
Трек 6 отсутствует в базе данных
Трек 7 отсутствует в базе данных
Трек 8 отсутствует в базе данных
Трек 9 отсутствует в базе данных
Трек 10 отсутствует в базе данных
Трек 11 отсутствует в базе данных
Трек 12 отсутствует в базе данных
Трек 13 отсутствует в базе данных
Трек 14 отсутствует в базе данных
Трек 15 отсутствует в базе данных
Трек 16 отсутствует в базе данных
Трек 17 отсутствует в базе данных
Трек 18 отсутствует в базе данных
Ни одного трека нет в базе AccurateRip
Конец отчёта
==== Контрольная сумма отчёта CE371865CB3BA6EA052883677652BBAFD3F543060C84050385E80971CAD97656 ====
 
Содержание индексной карты (.CUE)
REM GENRE "Jazz-Pop, Female Vocal, Funk, Disco"
REM DATE 2017
REM DISCID 080E4A12
REM COMMENT "ExactAudioCopy v1.0b3"
PERFORMER "Camera Soul"
TITLE "Connections"
FILE "Camera Soul - Connections.flac" WAVE
TRACK 01 AUDIO
TITLE "Connections"
PERFORMER "Camera Soul"
INDEX 01 00:00:00
TRACK 02 AUDIO
TITLE "Help yourself"
PERFORMER "Camera Soul"
INDEX 01 04:10:43
TRACK 03 AUDIO
TITLE "Black Cat"
PERFORMER "Camera Soul"
INDEX 01 07:26:62
TRACK 04 AUDIO
TITLE "Trip"
PERFORMER "Camera Soul"
INDEX 01 12:04:15
TRACK 05 AUDIO
TITLE "This is not the right way"
PERFORMER "Camera Soul"
INDEX 01 12:13:52
TRACK 06 AUDIO
TITLE "Never enough"
PERFORMER "Camera Soul"
INDEX 01 18:04:33
TRACK 07 AUDIO
TITLE "Giant fingers"
PERFORMER "Camera Soul"
INDEX 01 21:24:69
TRACK 08 AUDIO
TITLE "Now"
PERFORMER "Camera Soul"
INDEX 01 22:03:18
TRACK 09 AUDIO
TITLE "Summer breeze"
PERFORMER "Camera Soul"
INDEX 01 25:27:13
TRACK 10 AUDIO
TITLE "Dark side"
PERFORMER "Camera Soul"
INDEX 01 29:49:54
TRACK 11 AUDIO
TITLE "Love is a gift"
PERFORMER "Camera Soul"
INDEX 01 30:27:33
TRACK 12 AUDIO
TITLE "The land of the living"
PERFORMER "Camera Soul"
INDEX 01 34:05:33
TRACK 13 AUDIO
TITLE "Meu carnaval"
PERFORMER "Camera Soul"
INDEX 01 39:26:35
TRACK 14 AUDIO
TITLE "No such things"
PERFORMER "Camera Soul"
INDEX 01 44:26:00
TRACK 15 AUDIO
TITLE " I wonder how"
PERFORMER "Camera Soul"
INDEX 01 47:49:67
TRACK 16 AUDIO
TITLE "In the stone"
PERFORMER "Camera Soul"
INDEX 01 51:56:54
TRACK 17 AUDIO
TITLE "Tonight"
PERFORMER "Camera Soul"
INDEX 01 52:32:48
TRACK 18 AUDIO
TITLE "Connections Tom Glide Remix"
PERFORMER "Camera Soul"
INDEX 01 56:41:10
Доп. информация: Рип сделан собственноручно.
Сканы в папке.
Ознакомиться (прослушать) можно здесь
Рип от ©СЁРФ-Маrаtones aka izia1956
Приватный:
Нет (DHT включён)
Размер:
1.30 Гб (1,394,160,493 байт) » файлов: 36
Участники:
2 раздают, 2 качают (4 участников всего)
Внешние участники:
1 раздают, 0 качают (1 участников всего) [ Обновить ]
Скорость:
52.08 Кб/c 0/c
Есть вопросы - пишите личное сообщение пользователю M0p94ok.
05:09
54
Нет комментариев. Ваш будет первым!