Поиск

(Brass Funk, World Fusion, Bhangra, Jazz) [CD] Red Baraat - Gaadi Of Truth - 2015, FLAC (tracks+.cue), lossless

(Brass Funk, World Fusion, Bhangra, Jazz) [CD] Red Baraat - Gaadi Of Truth - 2015, FLAC (tracks+.cue), lossless
Треклист:
GAADI OF TRUTH
R E D ' B A R A A T
Жанр: Brass Funk, World Fusion, Bhangra, Jazz
Страна-производитель диска: USA
Год издания: 2015
Издатель (лейбл): Sinj Records
Номер по каталогу: SR 12015
Аудиокодек: FLAC (*.flac)
Тип рипа: tracks+.cue
Битрейт аудио: lossless
Продолжительность: 62:33
Источник (релизер): спасибо Guegs
Наличие сканов: нет
Треклист:
01. Gaadi Of Truth
02. Horizon Line
03. Call To Now
04. Zindabad
05. Bhangale
06. Crown Of Spade
07. Rang Barse
08. Layers
09. Bhangra Pirates
10. Se Hace Camino
11. Akhiyan Udeek Diyan
12. Layers (Karsh Kale Remix)
13. Horizon Line (Lost In The Trees Remix)
 
Лог создания рипа
Exact Audio Copy V1.0 beta 3 from 29. August 2011
EAC extraction logfile from 29. March 2015, 14:28
Red Baraat / Gaadi Of Truth
Used drive : TSSTcorpCDDVDW SE-208AB Adapter: 1 ID: 0
Read mode : Secure
Utilize accurate stream : Yes
Defeat audio cache : Yes
Make use of C2 pointers : No
Read offset correction : 6
Overread into Lead-In and Lead-Out : No
Fill up missing offset samples with silence : Yes
Delete leading and trailing silent blocks : No
Null samples used in CRC calculations : Yes
Used interface : Native Win32 interface for Win NT & 2000
Gap handling : Appended to previous track
Used output format : User Defined Encoder
Selected bitrate : 128 kBit/s
Quality : High
Add ID3 tag : No
Command line compressor : C:\Program Files (x86)\Exact Audio Copy\Flac\flac.exe
Additional command line options : -8 -V -T "ARTIST=%artist%" -T "TITLE=%title%" -T "ALBUM=%albumtitle%" -T "DATE=%year%" -T "TRACKNUMBER=%tracknr%" -T "GENRE=%genre%" -T "PERFORMER=%albuminterpret%" -T "COMPOSER=%composer%" %haslyrics%--tag-from-file=LYRICS="%lyricsfile%"%haslyrics% -T "ALBUMARTIST=%albumartist%" -T "DISCNUMBER=%cdnumber%" -T "TOTALDISCS=%totalcds%" -T "TOTALTRACKS=%numtracks%" -T "COMMENT=%comment%" %source% -o %dest%
TOC of the extracted CD
Track | Start | Length | Start sector | End sector
---------------------------------------------------------
1 | 0:00.00 | 5:40.20 | 0 | 25519
2 | 5:40.20 | 3:59.47 | 25520 | 43491
3 | 9:39.67 | 0:59.15 | 43492 | 47931
4 | 10:39.07 | 5:03.09 | 47932 | 70665
5 | 15:42.16 | 3:33.70 | 70666 | 86710
6 | 19:16.11 | 4:27.24 | 86711 | 106759
7 | 23:43.35 | 7:12.03 | 106760 | 139162
8 | 30:55.38 | 4:48.22 | 139163 | 160784
9 | 35:43.60 | 5:10.53 | 160785 | 184087
10 | 40:54.38 | 4:39.34 | 184088 | 205046
11 | 45:33.72 | 6:22.41 | 205047 | 233737
12 | 51:56.38 | 7:20.65 | 233738 | 266802
13 | 59:17.28 | 3:42.10 | 266803 | 283462
Track 1
Filename C:\Users\Andrew\Documents\EAC Rips\Red Baraat - Gaadi of Truth (2015) [FLAC]\01 - Gaadi Of Truth.wav
Pre-gap length 0:00:02.00
Peak level 99.3 %
Extraction speed 1.5 X
Track quality 99.9 %
Test CRC 88FFDEFB
Copy CRC 88FFDEFB
Track not present in AccurateRip database
Copy OK
Track 2
Filename C:\Users\Andrew\Documents\EAC Rips\Red Baraat - Gaadi of Truth (2015) [FLAC]\02 - Horizon Line.wav
Peak level 98.4 %
Extraction speed 1.6 X
Track quality 100.0 %
Test CRC 0501CFD9
Copy CRC 0501CFD9
Track not present in AccurateRip database
Copy OK
Track 3
Filename C:\Users\Andrew\Documents\EAC Rips\Red Baraat - Gaadi of Truth (2015) [FLAC]\03 - Call To Now.wav
Pre-gap length 0:00:04.00
Peak level 97.6 %
Extraction speed 1.1 X
Track quality 100.0 %
Test CRC 26FC1F32
Copy CRC 26FC1F32
Track not present in AccurateRip database
Copy OK
Track 4
Filename C:\Users\Andrew\Documents\EAC Rips\Red Baraat - Gaadi of Truth (2015) [FLAC]\04 - Zindabad (Featuring Mandeep Sethi).wav
Peak level 98.2 %
Extraction speed 1.5 X
Track quality 99.9 %
Test CRC B1DE2F1C
Copy CRC B1DE2F1C
Track not present in AccurateRip database
Copy OK
Track 5
Filename C:\Users\Andrew\Documents\EAC Rips\Red Baraat - Gaadi of Truth (2015) [FLAC]\05 - Bhangale (Featuring Steve Marion).wav
Peak level 98.4 %
Extraction speed 1.6 X
Track quality 100.0 %
Test CRC 545574C7
Copy CRC 545574C7
Track not present in AccurateRip database
Copy OK
Track 6
Filename C:\Users\Andrew\Documents\EAC Rips\Red Baraat - Gaadi of Truth (2015) [FLAC]\06 - Crown Of Spade.wav
Pre-gap length 0:00:02.98
Peak level 99.0 %
Extraction speed 1.7 X
Track quality 100.0 %
Test CRC EEB79C53
Copy CRC EEB79C53
Track not present in AccurateRip database
Copy OK
Track 7
Filename C:\Users\Andrew\Documents\EAC Rips\Red Baraat - Gaadi of Truth (2015) [FLAC]\07 - Rang Barse.wav
Peak level 98.5 %
Extraction speed 1.7 X
Track quality 100.0 %
Test CRC 0BA29346
Copy CRC 0BA29346
Track not present in AccurateRip database
Copy OK
Track 8
Filename C:\Users\Andrew\Documents\EAC Rips\Red Baraat - Gaadi of Truth (2015) [FLAC]\08 - Layers.wav
Pre-gap length 0:00:02.98
Peak level 97.7 %
Extraction speed 1.7 X
Track quality 100.0 %
Test CRC C7C61FF9
Copy CRC C7C61FF9
Track not present in AccurateRip database
Copy OK
Track 9
Filename C:\Users\Andrew\Documents\EAC Rips\Red Baraat - Gaadi of Truth (2015) [FLAC]\09 - Bhangra Pirates.wav
Pre-gap length 0:00:02.00
Peak level 97.9 %
Extraction speed 1.7 X
Track quality 100.0 %
Test CRC BEDF4288
Copy CRC BEDF4288
Track not present in AccurateRip database
Copy OK
Track 10
Filename C:\Users\Andrew\Documents\EAC Rips\Red Baraat - Gaadi of Truth (2015) [FLAC]\10 - Se Hace Camino.wav
Peak level 99.2 %
Extraction speed 1.6 X
Track quality 100.0 %
Test CRC E33764EA
Copy CRC E33764EA
Track not present in AccurateRip database
Copy OK
Track 11
Filename C:\Users\Andrew\Documents\EAC Rips\Red Baraat - Gaadi of Truth (2015) [FLAC]\11 - Akhiyan Udeek Diyan.wav
Pre-gap length 0:00:04.00
Peak level 99.6 %
Extraction speed 1.7 X
Track quality 100.0 %
Test CRC D16F5255
Copy CRC D16F5255
Track not present in AccurateRip database
Copy OK
Track 12
Filename C:\Users\Andrew\Documents\EAC Rips\Red Baraat - Gaadi of Truth (2015) [FLAC]\12 - Layers (Karsh Kale Remix).wav
Pre-gap length 0:00:02.97
Peak level 88.5 %
Extraction speed 1.6 X
Track quality 99.9 %
Test CRC FCE19D68
Copy CRC FCE19D68
Track not present in AccurateRip database
Copy OK
Track 13
Filename C:\Users\Andrew\Documents\EAC Rips\Red Baraat - Gaadi of Truth (2015) [FLAC]\13 - Horizon Line (Lost In The Trees Remix).wav
Pre-gap length 0:00:06.98
Peak level 63.9 %
Extraction speed 1.4 X
Track quality 99.9 %
Test CRC 5A4BCE9A
Copy CRC 5A4BCE9A
Track not present in AccurateRip database
Copy OK
None of the tracks are present in the AccurateRip database
No errors occurred
End of status report
---- CUETools DB Plugin V2.1.3
[CTDB TOCID: NV93Ss3n8mGzKjSYw2TsqhAckZM-] disk not present in database, Submit result: NV93Ss3n8mGzKjSYw2TsqhAckZM- has been uploaded
==== Log checksum 467711446B4360326905D60023421BF223833DBA2A45CFFBB5FA23F2B6580806 ====
 
Содержание индексной карты (.CUE)
REM GENRE Jazz
REM DATE 2015
REM DISCID B60EC30D
REM COMMENT "ExactAudioCopy v1.0b3"
PERFORMER "Red Baraat"
TITLE "Gaadi Of Truth"
FILE "01 - Gaadi Of Truth.wav" WAVE
TRACK 01 AUDIO
TITLE "Gaadi Of Truth"
PERFORMER "Red Baraat"
ISRC USXR61512001
INDEX 01 00:00:00
FILE "02 - Horizon Line.wav" WAVE
TRACK 02 AUDIO
TITLE "Horizon Line"
PERFORMER "Red Baraat"
ISRC USXR61512002
INDEX 01 00:00:00
TRACK 03 AUDIO
TITLE "Call To Now"
PERFORMER "Red Baraat"
ISRC USXR61512003
INDEX 00 03:55:47
FILE "03 - Call To Now.wav" WAVE
INDEX 01 00:00:00
FILE "04 - Zindabad (Featuring Mandeep Sethi).wav" WAVE
TRACK 04 AUDIO
TITLE "Zindabad (Featuring Mandeep Sethi)"
PERFORMER "Red Baraat"
ISRC USXR61512004
INDEX 01 00:00:00
FILE "05 - Bhangale (Featuring Steve Marion).wav" WAVE
TRACK 05 AUDIO
TITLE "Bhangale (Featuring Steve Marion)"
PERFORMER "Red Baraat"
ISRC USXR61512005
INDEX 01 00:00:00
TRACK 06 AUDIO
TITLE "Crown Of Spade"
PERFORMER "Red Baraat"
ISRC USXR61512006
INDEX 00 03:30:71
FILE "06 - Crown Of Spade.wav" WAVE
INDEX 01 00:00:00
FILE "07 - Rang Barse.wav" WAVE
TRACK 07 AUDIO
TITLE "Rang Barse"
PERFORMER "Red Baraat"
ISRC USXR61512007
INDEX 01 00:00:00
TRACK 08 AUDIO
TITLE "Layers"
PERFORMER "Red Baraat"
ISRC USXR61512008
INDEX 00 07:09:04
FILE "08 - Layers.wav" WAVE
INDEX 01 00:00:00
TRACK 09 AUDIO
TITLE "Bhangra Pirates"
PERFORMER "Red Baraat"
ISRC USXR61512009
INDEX 00 04:46:22
FILE "09 - Bhangra Pirates.wav" WAVE
INDEX 01 00:00:00
FILE "10 - Se Hace Camino.wav" WAVE
TRACK 10 AUDIO
TITLE "Se Hace Camino"
PERFORMER "Red Baraat"
ISRC USXR61512010
INDEX 01 00:00:00
TRACK 11 AUDIO
TITLE "Akhiyan Udeek Diyan"
PERFORMER "Red Baraat"
ISRC USXR61512011
INDEX 00 04:35:34
FILE "11 - Akhiyan Udeek Diyan.wav" WAVE
INDEX 01 00:00:00
TRACK 12 AUDIO
TITLE "Layers (Karsh Kale Remix)"
PERFORMER "Red Baraat"
ISRC USXR61512012
INDEX 00 06:19:43
FILE "12 - Layers (Karsh Kale Remix).wav" WAVE
INDEX 01 00:00:00
TRACK 13 AUDIO
TITLE "Horizon Line (Lost In The Trees Remix)"
PERFORMER "Red Baraat"
ISRC USXR61512013
INDEX 00 07:13:66
FILE "13 - Horizon Line (Lost In The Trees Remix).wav" WAVE
INDEX 01 00:00:00
 
Об альбоме
Blending the heart of Bhangra with the soul of New Orleans brass is the Brooklyn-based dhol n’ brass party band, Red Baraat. Their newest of three albums, Gaadi of Truth is an unadulterated party, and you’re invited! The dhol (the lead instrument of Red Baraat) is one of the most predominant drums in Punjabi music and is the pulse of the music from Bollywood. The band’s sound is an international musical fusion that achieves an infectious unity, second-to-none.
Founded by dhol player/singer/composer Sunny Jain, Red Baraat have been regulars in the festival circuit since being branded as “one of the best party bands around” by NPR in 2011. Their live show is the quintessential destination for a festive experience, and Red Baraat always delivers an unforgettable performance. Gaadi of Truth encapsulates this celebratory vibe flawlessly. From the jovial essence of Bhangra Pirates,” “Akhiyan Udeek Diyan” and the opening title track, to the easy, soulful sounds of “Horizon Line“ and “Layers,” Red Baraat’s latest effort is an all-encompassing World music masterwork.
Special guests appear throughout the album, such as rapper, Mandeep Sethi on the standout track, “Zindabad.” The lyrics evoke a strong social conscience and a spirit of communal awakening. “All my sisters breaking your chains, get your fist up,” spouts a passionate Sethi, “All my brothers ready for change, get your fist up!” This revolutionary fever is consistent throughout the album. The highly-festive title track also features some fiery rapping vocals touching on issues of racial profiling toward the end of the song.
The fifth track, “Crown of Spades” brings forward some of the fastest percussion on the album, while the following, “Rang Barse” starts off slow with the quiet sound of sitar and then gradually shifts gears into a rousing musical jubilee. Guitar virtuoso, Steve Marion (AKA Delicate Steve) is yet another special appearance on the rapid-fire, ass-shaking song, “Bhangale.” His guitar-work compliments the track brilliantly and adds an interesting additional element to this already-diverse eight-piece band. The album concludes with two remixed versions of “Layers” and “Horizon Line.”
Gaadi of Truth is true party music, from start to finish. Great for festivals, great for dancing and great for summer; which is right around the corner. The festival season is fast approaching and Red Baraat’s newest release has arrived just in time. Enjoy the party! (Joseph Conlon)
 
Состав

Sunny Jain – dhol
Rohin Khemani - percussion
Tomas Fujiwara - drumset
Mike Bomwell – soprano & baritone saxophone
Jonathon Haffner – alto saxophone
Sonny Singh - trumpet
MiWi La Lupa - bass trumpet
Ernest Stuart - trombone
John Altieri – sousaphone
guests
Mandeep Sethi – rap (4 )
Steve Marion – guitar (5)
Приватный:
Нет (DHT включён)
Размер:
390.51 Мб (409,480,099 байт) » файлов: 17
Участники:
0 раздают, 0 качают (0 участников всего)
Внешние участники:
2 раздают, 1 качают (3 участников всего) [ Обновить ]
Есть вопросы - пишите личное сообщение пользователю M0p94ok.
05:08
71
Нет комментариев. Ваш будет первым!