Поиск

(Soul) [CD] Aretha Franklin - I Never Loved A Man The Way I Love You (Japan) - 1967, FLAC (image+.cue), lossless

(Soul) [CD] Aretha Franklin - I Never Loved A Man The Way I Love You (Japan) - 1967, FLAC (image+.cue), lossless
Треклист:
Aretha Franklin / I Never Loved A Man The Way I Love You (Japan)
Жанр: Soul
Носитель: CD
Страна-производитель диска (релиза): Japan
Год издания: 1967
Издатель (лейбл): Atlantic
Номер по каталогу: WPCR 27601
Страна исполнителя (группы): USA
Аудиокодек: FLAC (*.flac)
Тип рипа: image+.cue
Битрейт аудио: lossless
Продолжительность: 41:42
Источник (релизер): собственный рип
Наличие сканов в содержимом раздачи: да
Треклист:
1. "Respect" (Otis Redding) – 2:29
2. "Drown in My Own Tears" (Henry Glover) – 4:07
3. "I Never Loved a Man (The Way I Love You)" (Ronnie Shannon) – 2:51
4. "Soul Serenade" (Curtis Ousley, Luther Dixon) – 2:39
5. "Don't Let Me Lose This Dream" (Aretha Franklin, Ted White) – 2:23
6. "Baby, Baby, Baby" (Aretha Franklin, Carolyn Franklin) – 2:54
7. "Dr. Feelgood (Love Is a Serious Business)" (Aretha Franklin, Ted White) – 3:23
8. "Good Times" (Sam Cooke) – 2:10
9. "Do Right Woman, Do Right Man" (Dan Penn, Chips Moman) – 3:16
10. "Save Me" (Curtis Ousley, Aretha Franklin, Carolyn Franklin) – 2:21
11. "A Change Is Gonna Come" (Sam Cooke) – 4:20
12. "Respect" (mono version) – 2:28
13. "I Never Loved a Man (The Way I Love You)" (mono version) – 2:47
14. "Do Right Woman, Do Right Man" (mono version) – 3:14
 
Лог создания рипа
Exact Audio Copy V1.0 beta 6 from 9. April 2015
Отчёт EAC об извлечении, выполненном 21. октября 2015, 21:19
Aretha Franklin / I Never Loved A Man The Way I Love You
Дисковод: MATSHITADVD-RAM UJ8B1AS Adapter: 1 ID: 0
Режим чтения : Достоверность
Использование точного потока : Да
Отключение кэша аудио : Да
Использование указателей C2 : Нет
Коррекция смещения при чтении : 6
Способность читать области Lead-in и Lead-out : Нет
Заполнение пропущенных сэмплов тишиной : Да
Удаление блоков с тишиной в начале и конце : Нет
При вычислениях CRC использовались нулевые сэмплы : Да
Интерфейс : Встроенный Win32-интерфейс для Win NT/2000
Выходной формат : Пользовательский кодировщик
Выбранный битрейт : 128 kBit/s
Качество : Высокий
Добавление ID3-тега : Нет
Утилита сжатия : C:\Program Files (x86)\Exact Audio Copy\Flac\flac.exe
Дополнительные параметры : -V -8 -T "Date=%year%" -T "Genre=%genre%" %source%
TOC извлечённого CD
Трек | Старт | Длительность | Начальный сектор | Конечный сектор
---------------------------------------------------------------------
1 | 0:00.00 | 2:30.13 | 0 | 11262
2 | 2:30.13 | 4:07.42 | 11263 | 29829
3 | 6:37.55 | 2:45.05 | 29830 | 42209
4 | 9:22.60 | 2:38.25 | 42210 | 54084
5 | 12:01.10 | 2:23.44 | 54085 | 64853
6 | 14:24.54 | 3:01.28 | 64854 | 78456
7 | 17:26.07 | 3:23.30 | 78457 | 93711
8 | 20:49.37 | 2:10.01 | 93712 | 103462
9 | 22:59.38 | 3:19.51 | 103463 | 118438
10 | 26:19.14 | 2:21.48 | 118439 | 129061
11 | 28:40.62 | 4:26.19 | 129062 | 149030
12 | 33:07.06 | 2:26.66 | 149031 | 160046
13 | 35:33.72 | 2:53.28 | 160047 | 173049
14 | 38:27.25 | 3:14.42 | 173050 | 187641
Характеристики диапазона извлечения и сообщения об ошибках
Выбранный диапазон
Имя файла C:\Users\Alex\Downloads\1\Aretha Franklin - I Never Loved A Man The Way I Love You.wav
Пиковый уровень 100.0 %
Скорость извлечения 4.0 X
Качество диапазона 100.0 %
CRC теста 35CA887B
CRC копии 35CA887B
Копирование... OK
Ошибок не произошло
AccurateRip: сводка
Трек 1 : извлечено точно (доверие 1) [D154634D] (AR v2)
Трек 2 : извлечено точно (доверие 1) [00E1E6F8] (AR v2)
Трек 3 : извлечено точно (доверие 1) [7C010AF4] (AR v2)
Трек 4 : извлечено точно (доверие 1) [C6069390] (AR v2)
Трек 5 : извлечено точно (доверие 1) [1EA80237] (AR v2)
Трек 6 : извлечено точно (доверие 1) [146E6D2C] (AR v2)
Трек 7 : извлечено точно (доверие 1) [055BB96C] (AR v2)
Трек 8 : извлечено точно (доверие 1) [53B5D23E] (AR v2)
Трек 9 : извлечено точно (доверие 1) [A670E8F3] (AR v2)
Трек 10 : извлечено точно (доверие 1) [8EE53E58] (AR v2)
Трек 11 : извлечено точно (доверие 1) [25F80BBE] (AR v2)
Трек 12 : извлечено точно (доверие 1) [BA4B4609] (AR v2)
Трек 13 : извлечено точно (доверие 1) [AF407162] (AR v2)
Трек 14 : извлечено точно (доверие 1) [1B3BBDE3] (AR v2)
Все треки извлечены точно
Конец отчёта
==== Контрольная сумма отчёта 7ECAB5958BE527A0C7484FD9BE1FC9E8880555AFAF6042B7D99E77F0AA72E18E ====
 
Фото
Приватный:
Нет (DHT включён)
Размер:
233.18 Мб (244,508,933 байт) » файлов: 5
Участники:
0 раздают, 29 качают (29 участников всего)
Внешние участники:
5 раздают, 2 качают (7 участников всего) [ Обновить ]
No seeders - write a personal message to user M0p94ok. Нет сидеров - пишите личное сообщение пользователю M0p94ok.
08:25
73
Нет комментариев. Ваш будет первым!