Поиск

(Funk, soul, dance-pop, synthpop, smooth soul) Marvin Gaye - Dream of a Lifetime - 1985, FLAC (tracks+.cue), lossless

(Funk, soul, dance-pop, synthpop, smooth soul) Marvin Gaye - Dream of a Lifetime - 1985, FLAC (tracks+.cue), lossless
Треклист:
Marvin Gaye / Dream of a Lifetime
Жанр: Funk, soul, dance-pop, synthpop, smooth soul
Год издания: 1985
Страна исполнителя (группы): USA
Аудиокодек: FLAC (*.flac)
Тип рипа:tracks+.cue
Битрейт аудио: lossless
Продолжительность: 00:36:10
Источник (релизер): internet
Наличие сканов в содержимом раздачи: да
Треклист:
1 Sanctified Lady 5:26
2 Savage in the Sack 3:21
3 Masochistic Beauty 4:38
4 It's Madness 3:23
5 Ain't It Funny (How Things Turn Around) 4:53
6 Symphony 2:52
7 Life's Opera 7:42
8 Dream of a Lifetime 3:49
 
Лог создания рипа
Exact Audio Copy V1.0 beta 3 from 29. August 2011
EAC extraction logfile from 31. January 2014, 14:14
Gaye, Marvin / Dream of a lifetime
Used drive : HL-DT-STDVDRAM GSA-T40N Adapter: 0 ID: 0
Read mode : Secure
Utilize accurate stream : Yes
Defeat audio cache : Yes
Make use of C2 pointers : No
Read offset correction : 667
Overread into Lead-In and Lead-Out : No
Fill up missing offset samples with silence : Yes
Delete leading and trailing silent blocks : No
Null samples used in CRC calculations : Yes
Used interface : Native Win32 interface for Win NT & 2000
Gap handling : Appended to previous track
Used output format : User Defined Encoder
Selected bitrate : 896 kBit/s
Quality : High
Add ID3 tag : No
Command line compressor : C:\Program Files\Exact Audio Copy\FLAC\FLAC.EXE
Additional command line options : -8 -V -T "ARTIST=%artist%" -T "TITLE=%title%" -T "ALBUM=%albumtitle%" -T "DATE=%year%" -T "TRACKNUMBER=%tracknr%" -T "GENRE=%genre%" -T "COMMENT=%comment%" -T "BAND=%albuminterpret%" -T "ALBUMARTIST=%albuminterpret%" -T "COMPOSER=%composer%" %haslyrics%--tag-from-file=LYRICS="%lyricsfile%"%haslyrics% -T "DISCNUMBER=%cdnumber%" -T "TOTALDISCS=%totalcds%" -T "TOTALTRACKS=%numtracks%" %hascover%--picture="%coverfile%"%hascover% %source% -o %dest%
TOC of the extracted CD
Track | Start | Length | Start sector | End sector
---------------------------------------------------------
1 | 0:00.00 | 5:26.17 | 0 | 24466
2 | 5:26.17 | 3:21.23 | 24467 | 39564
3 | 8:47.40 | 4:41.42 | 39565 | 60681
4 | 13:29.07 | 3:22.50 | 60682 | 75881
5 | 16:51.57 | 4:54.50 | 75882 | 97981
6 | 21:46.32 | 2:52.40 | 97982 | 110921
7 | 24:38.72 | 7:42.33 | 110922 | 145604
8 | 32:21.30 | 3:49.10 | 145605 | 162789
Track 1
Filename H:\MY EAC[.FLAC]\Marvin Gaye - Dream of a Lifetime\(1) Sanctified lady - Gaye, Marvin.flac
Pre-gap length 0:00:02.00
Peak level 94.9 %
Extraction speed 1.9 X
Track quality 100.0 %
Test CRC 34CA7BD1
Copy CRC 34CA7BD1
Accurately ripped (confidence 10) [0F223220] (AR v1)
Copy OK
Track 2
Filename H:\MY EAC[.FLAC]\Marvin Gaye - Dream of a Lifetime\(2) Savage in the sack - Gaye, Marvin.flac
Pre-gap length 0:00:00.80
Peak level 95.9 %
Extraction speed 1.0 X
Track quality 99.9 %
Test CRC 42219546
Copy CRC 42219546
Accurately ripped (confidence 10) [BFADF3EF] (AR v1)
Copy OK
Track 3
Filename H:\MY EAC[.FLAC]\Marvin Gaye - Dream of a Lifetime\(3) Masochistic beauty - Gaye, Marvin.flac
Pre-gap length 0:00:01.06
Peak level 92.4 %
Extraction speed 1.3 X
Track quality 100.0 %
Test CRC 873EBFDD
Copy CRC 873EBFDD
Accurately ripped (confidence 10) [FB39F977] (AR v1)
Copy OK
Track 4
Filename H:\MY EAC[.FLAC]\Marvin Gaye - Dream of a Lifetime\(4) It's madness - Gaye, Marvin.flac
Pre-gap length 0:00:02.53
Peak level 92.7 %
Extraction speed 1.4 X
Track quality 100.0 %
Test CRC D066F798
Copy CRC D066F798
Accurately ripped (confidence 10) [60416FCB] (AR v1)
Copy OK
Track 5
Filename H:\MY EAC[.FLAC]\Marvin Gaye - Dream of a Lifetime\(5) Ain't it funny (how things turn around) - Gaye, Marvin.flac
Pre-gap length 0:00:01.00
Peak level 93.3 %
Extraction speed 1.5 X
Track quality 100.0 %
Test CRC 921305B1
Copy CRC 921305B1
Accurately ripped (confidence 10) [64198440] (AR v1)
Copy OK
Track 6
Filename H:\MY EAC[.FLAC]\Marvin Gaye - Dream of a Lifetime\(6) Symphony - Gaye, Marvin.flac
Pre-gap length 0:00:00.16
Peak level 88.4 %
Extraction speed 1.2 X
Track quality 100.0 %
Test CRC 67A8A7D5
Copy CRC 67A8A7D5
Accurately ripped (confidence 10) [D4704821] (AR v1)
Copy OK
Track 7
Filename H:\MY EAC[.FLAC]\Marvin Gaye - Dream of a Lifetime\(7) Life's opera - Gaye, Marvin.flac
Pre-gap length 0:00:01.93
Peak level 97.1 %
Extraction speed 1.7 X
Track quality 99.9 %
Test CRC 873362A0
Copy CRC 873362A0
Accurately ripped (confidence 10) [D6E0C8AD] (AR v1)
Copy OK
Track 8
Filename H:\MY EAC[.FLAC]\Marvin Gaye - Dream of a Lifetime\(8) Dream of a lifetime - Gaye, Marvin.flac
Pre-gap length 0:00:00.40
Peak level 96.2 %
Extraction speed 1.6 X
Track quality 100.0 %
Test CRC CA1740A7
Copy CRC CA1740A7
Accurately ripped (confidence 10) [DCE2C147] (AR v1)
Copy OK
All tracks accurately ripped
No errors occurred
End of status report
==== Log checksum 0D36D1C7F322190BC01BA300E1ACDD5F5E033FD6631D07A9DF1B014FE418E041 ====
 
Audiochecker log
AUDIOCHECKER v2.0 beta (build 457) - by Dester - opdester@freemail.hu
~~~~~~~~~~~~~~~~~~~~~~~~~~~~~~~~~~
Started at: суббота, 31. 10. 2015. - 7:59.59
8 files found
1 -===- F:\ЯЯЯЯ\Marvin Gaye - Dream of a Lifetime\(1) Sanctified lady - Gaye, Marvin.flac
Extracted successfully
Conclusion: this track is CDDA with probability 99%
Tempfile successfully deleted.
2 -===- F:\ЯЯЯЯ\Marvin Gaye - Dream of a Lifetime\(2) Savage in the sack - Gaye, Marvin.flac
Extracted successfully
Conclusion: this track is CDDA with probability 100%
Tempfile successfully deleted.
3 -===- F:\ЯЯЯЯ\Marvin Gaye - Dream of a Lifetime\(3) Masochistic beauty - Gaye, Marvin.flac
Extracted successfully
Conclusion: this track is CDDA with probability 100%
Tempfile successfully deleted.
4 -===- F:\ЯЯЯЯ\Marvin Gaye - Dream of a Lifetime\(4) It's madness - Gaye, Marvin.flac
Extracted successfully
Conclusion: this track is CDDA with probability 100%
Tempfile successfully deleted.
5 -===- F:\ЯЯЯЯ\Marvin Gaye - Dream of a Lifetime\(5) Ain't it funny (how things turn around) - Gaye, Marvin.flac
Extracted successfully
Conclusion: this track is CDDA with probability 100%
Tempfile successfully deleted.
6 -===- F:\ЯЯЯЯ\Marvin Gaye - Dream of a Lifetime\(6) Symphony - Gaye, Marvin.flac
Extracted successfully
Conclusion: this track is CDDA with probability 100%
Tempfile successfully deleted.
7 -===- F:\ЯЯЯЯ\Marvin Gaye - Dream of a Lifetime\(7) Life's opera - Gaye, Marvin.flac
Extracted successfully
Conclusion: this track is CDDA with probability 100%
Tempfile successfully deleted.
8 -===- F:\ЯЯЯЯ\Marvin Gaye - Dream of a Lifetime\(8) Dream of a lifetime - Gaye, Marvin.flac
Extracted successfully
Conclusion: this track is CDDA with probability 100%
Tempfile successfully deleted.
Finished at: суббота, 31. 10. 2015. - 8:02.57 (operation time: 0:02.58)
 
Содержание индексной карты (.CUE)
REM GENRE Soul
REM DATE 1985
REM DISCID 58087A08
REM COMMENT "ExactAudioCopy v1.0b3"
PERFORMER "Gaye, Marvin"
TITLE "Dream of a lifetime"
FILE "(1) Sanctified lady - Gaye, Marvin.wav" WAVE
TRACK 01 AUDIO
TITLE "Sanctified lady"
PERFORMER "Gaye, Marvin"
INDEX 01 00:00:00
TRACK 02 AUDIO
TITLE "Savage in the sack"
PERFORMER "Gaye, Marvin"
INDEX 00 05:25:32
FILE "(2) Savage in the sack - Gaye, Marvin.wav" WAVE
INDEX 01 00:00:00
TRACK 03 AUDIO
TITLE "Masochistic beauty"
PERFORMER "Gaye, Marvin"
INDEX 00 03:20:18
FILE "(3) Masochistic beauty - Gaye, Marvin.wav" WAVE
INDEX 01 00:00:00
TRACK 04 AUDIO
TITLE "It's madness"
PERFORMER "Gaye, Marvin"
INDEX 00 04:39:02
FILE "(4) It's madness - Gaye, Marvin.wav" WAVE
INDEX 01 00:00:00
TRACK 05 AUDIO
TITLE "Ain't it funny (how things turn around)"
PERFORMER "Gaye, Marvin"
INDEX 00 03:21:50
FILE "(5) Ain't it funny (how things turn around) - Gaye, Marvin.wav" WAVE
INDEX 01 00:00:00
TRACK 06 AUDIO
TITLE "Symphony"
PERFORMER "Gaye, Marvin"
INDEX 00 04:54:38
FILE "(6) Symphony - Gaye, Marvin.wav" WAVE
INDEX 01 00:00:00
TRACK 07 AUDIO
TITLE "Life's opera"
PERFORMER "Gaye, Marvin"
INDEX 00 02:50:45
FILE "(7) Life's opera - Gaye, Marvin.wav" WAVE
INDEX 01 00:00:00
TRACK 08 AUDIO
TITLE "Dream of a lifetime"
PERFORMER "Gaye, Marvin"
INDEX 00 07:42:03
FILE "(8) Dream of a lifetime - Gaye, Marvin.wav" WAVE
INDEX 01 00:00:00
Приватный:
Нет (DHT включён)
Размер:
222.30 Мб (233,102,033 байт) » файлов: 13
Участники:
0 раздают, 0 качают (0 участников всего)
Внешние участники:
3 раздают, 1 качают (4 участников всего) [ Обновить ]
No seeders - write a personal message to user M0p94ok. Нет сидеров - пишите личное сообщение пользователю M0p94ok.
08:24
155
Нет комментариев. Ваш будет первым!