Поиск

(Soul, Vocal jazz) Marvin Gaye - A Tribute To The Great Nat King Cole - 1965, FLAC (tracks+.cue), lossless

(Soul, Vocal jazz) Marvin Gaye - A Tribute To The Great Nat King Cole - 1965, FLAC (tracks+.cue), lossless
Треклист:
Marvin Gaye / A Tribute To The Great Nat King Cole
Жанр: Soul, Vocal jazz
Год издания: 1965
Страна исполнителя (группы): USA
Аудиокодек: FLAC (*.flac)
Тип рипа:tracks+.cue
Битрейт аудио: lossless
Продолжительность: 00:36:29
Источник (релизер): internet
Наличие сканов в содержимом раздачи: да
Треклист:
01. Nature Boy (02:53)
02. Ramblin' Rose (02:54)
03. Too Young (03:50)
04. Pretend (02:51)
05. Straighten Up And Fly Right (02:26)
06. Mona Lisa (03:04)
07. Unforgettable (03:43)
08. To The Ends Of The Earth (02:21)
09. Sweet Lorraine (02:50)
10. It's Only A Paper Moon (02:28)
11. Send For Me (03:00)
12. Calypso Blues (04:05)
 
Лог создания рипа
Exact Audio Copy V1.0 beta 3 from 29. August 2011
EAC extraction logfile from 2. February 2014, 21:12
Marvin Gaye / A Tribute To The Great Nat King Cole
Used drive : HL-DT-STDVDRAM GSA-T40N Adapter: 0 ID: 0
Read mode : Secure
Utilize accurate stream : Yes
Defeat audio cache : Yes
Make use of C2 pointers : No
Read offset correction : 667
Overread into Lead-In and Lead-Out : No
Fill up missing offset samples with silence : Yes
Delete leading and trailing silent blocks : No
Null samples used in CRC calculations : Yes
Used interface : Native Win32 interface for Win NT & 2000
Gap handling : Appended to previous track
Used output format : User Defined Encoder
Selected bitrate : 896 kBit/s
Quality : High
Add ID3 tag : No
Command line compressor : C:\Program Files\Exact Audio Copy\FLAC\FLAC.EXE
Additional command line options : -8 -V -T "ARTIST=%artist%" -T "TITLE=%title%" -T "ALBUM=%albumtitle%" -T "DATE=%year%" -T "TRACKNUMBER=%tracknr%" -T "GENRE=%genre%" -T "COMMENT=%comment%" -T "BAND=%albuminterpret%" -T "ALBUMARTIST=%albuminterpret%" -T "COMPOSER=%composer%" %haslyrics%--tag-from-file=LYRICS="%lyricsfile%"%haslyrics% -T "DISCNUMBER=%cdnumber%" -T "TOTALDISCS=%totalcds%" -T "TOTALTRACKS=%numtracks%" %hascover%--picture="%coverfile%"%hascover% %source% -o %dest%
TOC of the extracted CD
Track | Start | Length | Start sector | End sector
---------------------------------------------------------
1 | 0:00.00 | 2:53.18 | 0 | 12992
2 | 2:53.18 | 2:54.07 | 12993 | 26049
3 | 5:47.25 | 3:50.03 | 26050 | 43302
4 | 9:37.28 | 2:51.42 | 43303 | 56169
5 | 12:28.70 | 2:26.30 | 56170 | 67149
6 | 14:55.25 | 3:04.28 | 67150 | 80977
7 | 17:59.53 | 3:43.67 | 80978 | 97769
8 | 21:43.45 | 2:21.15 | 97770 | 108359
9 | 24:04.60 | 2:50.45 | 108360 | 121154
10 | 26:55.30 | 2:28.33 | 121155 | 132287
11 | 29:23.63 | 3:00.60 | 132288 | 145847
12 | 32:24.48 | 4:05.15 | 145848 | 164237
Track 1
Filename H:\MY EAC[.FLAC]\Marvin Gaye - A Tribute to The Great Nat King Cole\(1) Nature Boy - Marvin Gaye.flac
Pre-gap length 0:00:02.00
Peak level 98.5 %
Extraction speed 2.0 X
Track quality 100.0 %
Test CRC 4162E724
Copy CRC 4162E724
Accurately ripped (confidence 3) [621C3398] (AR v2)
Copy OK
Track 2
Filename H:\MY EAC[.FLAC]\Marvin Gaye - A Tribute to The Great Nat King Cole\(2) Ramblin' Rose - Marvin Gaye.flac
Pre-gap length 0:00:03.37
Peak level 87.0 %
Extraction speed 2.2 X
Track quality 100.0 %
Test CRC 4ED4AF7C
Copy CRC 4ED4AF7C
Accurately ripped (confidence 3) [CCAACF10] (AR v2)
Copy OK
Track 3
Filename H:\MY EAC[.FLAC]\Marvin Gaye - A Tribute to The Great Nat King Cole\(3) Too Young - Marvin Gaye.flac
Pre-gap length 0:00:03.73
Peak level 92.9 %
Extraction speed 2.2 X
Track quality 99.9 %
Test CRC E09D666C
Copy CRC E09D666C
Accurately ripped (confidence 3) [58F1CB28] (AR v2)
Copy OK
Track 4
Filename H:\MY EAC[.FLAC]\Marvin Gaye - A Tribute to The Great Nat King Cole\(4) Pretend - Marvin Gaye.flac
Pre-gap length 0:00:02.73
Peak level 87.9 %
Extraction speed 2.5 X
Track quality 100.0 %
Test CRC B51BD25F
Copy CRC B51BD25F
Accurately ripped (confidence 3) [678DA021] (AR v2)
Copy OK
Track 5
Filename H:\MY EAC[.FLAC]\Marvin Gaye - A Tribute to The Great Nat King Cole\(5) Straighten Up And Fly Right - Marvin Gaye.flac
Pre-gap length 0:00:03.36
Peak level 100.0 %
Extraction speed 2.1 X
Track quality 99.9 %
Test CRC 80F21BDE
Copy CRC 80F21BDE
Accurately ripped (confidence 3) [46B2773B] (AR v2)
Copy OK
Track 6
Filename H:\MY EAC[.FLAC]\Marvin Gaye - A Tribute to The Great Nat King Cole\(6) Mona Lisa - Marvin Gaye.flac
Pre-gap length 0:00:03.46
Peak level 86.5 %
Extraction speed 2.8 X
Track quality 100.0 %
Test CRC B4170645
Copy CRC B4170645
Accurately ripped (confidence 3) [EF00717B] (AR v2)
Copy OK
Track 7
Filename H:\MY EAC[.FLAC]\Marvin Gaye - A Tribute to The Great Nat King Cole\(7) Unforgettable - Marvin Gaye.flac
Pre-gap length 0:00:03.04
Peak level 100.0 %
Extraction speed 2.8 X
Track quality 100.0 %
Test CRC ABC2CBBD
Copy CRC ABC2CBBD
Accurately ripped (confidence 3) [25BD21C7] (AR v2)
Copy OK
Track 8
Filename H:\MY EAC[.FLAC]\Marvin Gaye - A Tribute to The Great Nat King Cole\(8) To The Ends Of The Earth - Marvin Gaye.flac
Pre-gap length 0:00:03.16
Peak level 100.0 %
Extraction speed 2.8 X
Track quality 100.0 %
Test CRC 4A2E08D2
Copy CRC 4A2E08D2
Accurately ripped (confidence 2) [E248B471] (AR v2)
Copy OK
Track 9
Filename H:\MY EAC[.FLAC]\Marvin Gaye - A Tribute to The Great Nat King Cole\(9) Sweet Lorraine - Marvin Gaye.flac
Pre-gap length 0:00:03.62
Peak level 100.0 %
Extraction speed 2.9 X
Track quality 100.0 %
Test CRC 5A2C0ED9
Copy CRC 5A2C0ED9
Accurately ripped (confidence 3) [C2F5F41F] (AR v2)
Copy OK
Track 10
Filename H:\MY EAC[.FLAC]\Marvin Gaye - A Tribute to The Great Nat King Cole\(10) It's Only A Paper Moon - Marvin Gaye.flac
Pre-gap length 0:00:03.20
Peak level 100.0 %
Extraction speed 3.0 X
Track quality 100.0 %
Test CRC 175B3F6A
Copy CRC 175B3F6A
Accurately ripped (confidence 3) [DF6BD1C1] (AR v2)
Copy OK
Track 11
Filename H:\MY EAC[.FLAC]\Marvin Gaye - A Tribute to The Great Nat King Cole\(11) Send For Me - Marvin Gaye.flac
Pre-gap length 0:00:03.37
Peak level 100.0 %
Extraction speed 3.1 X
Track quality 100.0 %
Test CRC A7D0002F
Copy CRC A7D0002F
Accurately ripped (confidence 3) [8814C153] (AR v2)
Copy OK
Track 12
Filename H:\MY EAC[.FLAC]\Marvin Gaye - A Tribute to The Great Nat King Cole\(12) Calypso Blues - Marvin Gaye.flac
Pre-gap length 0:00:03.44
Peak level 78.1 %
Extraction speed 3.3 X
Track quality 100.0 %
Test CRC E3E980B4
Copy CRC E3E980B4
Accurately ripped (confidence 3) [D2A045AB] (AR v2)
Copy OK
All tracks accurately ripped
No errors occurred
End of status report
==== Log checksum D7D56BF3308992610ADC9C3779AC3D5F0558B72F2EE0B27270F7D7D371D852B0 ====
 
Audiochecker log
AUDIOCHECKER v2.0 beta (build 457) - by Dester - opdester@freemail.hu
~~~~~~~~~~~~~~~~~~~~~~~~~~~~~~~~~~
Started at: суббота, 31. 10. 2015. - 7:52.24
12 files found
01 -===- F:\ЯЯЯЯ\Marvin Gaye - A Tribute to The Great Nat King Cole\(1) Nature Boy - Marvin Gaye.flac
Extracted successfully
Conclusion: this track is CDDA with probability 100%
Tempfile successfully deleted.
02 -===- F:\ЯЯЯЯ\Marvin Gaye - A Tribute to The Great Nat King Cole\(2) Ramblin' Rose - Marvin Gaye.flac
Extracted successfully
Conclusion: this track is CDDA with probability 100%
Tempfile successfully deleted.
03 -===- F:\ЯЯЯЯ\Marvin Gaye - A Tribute to The Great Nat King Cole\(3) Too Young - Marvin Gaye.flac
Extracted successfully
Conclusion: this track is CDDA with probability 100%
Tempfile successfully deleted.
04 -===- F:\ЯЯЯЯ\Marvin Gaye - A Tribute to The Great Nat King Cole\(4) Pretend - Marvin Gaye.flac
Extracted successfully
Conclusion: this track is CDDA with probability 100%
Tempfile successfully deleted.
05 -===- F:\ЯЯЯЯ\Marvin Gaye - A Tribute to The Great Nat King Cole\(5) Straighten Up And Fly Right - Marvin Gaye.flac
Extracted successfully
Conclusion: this track is CDDA with probability 99%
Tempfile successfully deleted.
06 -===- F:\ЯЯЯЯ\Marvin Gaye - A Tribute to The Great Nat King Cole\(6) Mona Lisa - Marvin Gaye.flac
Extracted successfully
Conclusion: this track is CDDA with probability 100%
Tempfile successfully deleted.
07 -===- F:\ЯЯЯЯ\Marvin Gaye - A Tribute to The Great Nat King Cole\(7) Unforgettable - Marvin Gaye.flac
Extracted successfully
Conclusion: this track is CDDA with probability 100%
Tempfile successfully deleted.
08 -===- F:\ЯЯЯЯ\Marvin Gaye - A Tribute to The Great Nat King Cole\(8) To The Ends Of The Earth - Marvin Gaye.flac
Extracted successfully
Conclusion: this track is CDDA with probability 100%
Tempfile successfully deleted.
09 -===- F:\ЯЯЯЯ\Marvin Gaye - A Tribute to The Great Nat King Cole\(9) Sweet Lorraine - Marvin Gaye.flac
Extracted successfully
Conclusion: this track is CDDA with probability 100%
Tempfile successfully deleted.
10 -===- F:\ЯЯЯЯ\Marvin Gaye - A Tribute to The Great Nat King Cole\(10) It's Only A Paper Moon - Marvin Gaye.flac
Extracted successfully
Conclusion: this track is CDDA with probability 100%
Tempfile successfully deleted.
11 -===- F:\ЯЯЯЯ\Marvin Gaye - A Tribute to The Great Nat King Cole\(11) Send For Me - Marvin Gaye.flac
Extracted successfully
Conclusion: this track is CDDA with probability 100%
Tempfile successfully deleted.
12 -===- F:\ЯЯЯЯ\Marvin Gaye - A Tribute to The Great Nat King Cole\(12) Calypso Blues - Marvin Gaye.flac
Extracted successfully
Conclusion: this track is CDDA with probability 100%
Tempfile successfully deleted.
Finished at: суббота, 31. 10. 2015. - 7:55.25 (operation time: 0:03.01)
 
Содержание индексной карты (.CUE)
REM GENRE Soul
REM DATE 1965
REM DISCID B0088D0C
REM COMMENT "ExactAudioCopy v1.0b3"
PERFORMER "Marvin Gaye"
TITLE "A Tribute To The Great Nat King Cole"
FILE "(1) Nature Boy - Marvin Gaye.wav" WAVE
TRACK 01 AUDIO
TITLE "Nature Boy"
PERFORMER "Marvin Gaye"
INDEX 01 00:00:00
TRACK 02 AUDIO
TITLE "Ramblin' Rose"
PERFORMER "Marvin Gaye"
INDEX 00 02:49:65
FILE "(2) Ramblin' Rose - Marvin Gaye.wav" WAVE
INDEX 01 00:00:00
TRACK 03 AUDIO
TITLE "Too Young"
PERFORMER "Marvin Gaye"
INDEX 00 02:50:27
FILE "(3) Too Young - Marvin Gaye.wav" WAVE
INDEX 01 00:00:00
TRACK 04 AUDIO
TITLE "Pretend"
PERFORMER "Marvin Gaye"
INDEX 00 03:47:23
FILE "(4) Pretend - Marvin Gaye.wav" WAVE
INDEX 01 00:00:00
TRACK 05 AUDIO
TITLE "Straighten Up And Fly Right"
PERFORMER "Marvin Gaye"
INDEX 00 02:48:15
FILE "(5) Straighten Up And Fly Right - Marvin Gaye.wav" WAVE
INDEX 01 00:00:00
TRACK 06 AUDIO
TITLE "Mona Lisa"
PERFORMER "Marvin Gaye"
INDEX 00 02:22:70
FILE "(6) Mona Lisa - Marvin Gaye.wav" WAVE
INDEX 01 00:00:00
TRACK 07 AUDIO
TITLE "Unforgettable"
PERFORMER "Marvin Gaye"
INDEX 00 03:01:25
FILE "(7) Unforgettable - Marvin Gaye.wav" WAVE
INDEX 01 00:00:00
TRACK 08 AUDIO
TITLE "To The Ends Of The Earth"
PERFORMER "Marvin Gaye"
INDEX 00 03:40:55
FILE "(8) To The Ends Of The Earth - Marvin Gaye.wav" WAVE
INDEX 01 00:00:00
TRACK 09 AUDIO
TITLE "Sweet Lorraine"
PERFORMER "Marvin Gaye"
INDEX 00 02:17:43
FILE "(9) Sweet Lorraine - Marvin Gaye.wav" WAVE
INDEX 01 00:00:00
TRACK 10 AUDIO
TITLE "It's Only A Paper Moon"
PERFORMER "Marvin Gaye"
INDEX 00 02:47:30
FILE "(10) It's Only A Paper Moon - Marvin Gaye.wav" WAVE
INDEX 01 00:00:00
TRACK 11 AUDIO
TITLE "Send For Me"
PERFORMER "Marvin Gaye"
INDEX 00 02:25:05
FILE "(11) Send For Me - Marvin Gaye.wav" WAVE
INDEX 01 00:00:00
TRACK 12 AUDIO
TITLE "Calypso Blues"
PERFORMER "Marvin Gaye"
INDEX 00 02:57:27
FILE "(12) Calypso Blues - Marvin Gaye.wav" WAVE
INDEX 01 00:00:00
Приватный:
Нет (DHT включён)
Размер:
210.93 Мб (221,171,752 байт) » файлов: 17
Участники:
0 раздают, 0 качают (0 участников всего)
Внешние участники:
3 раздают, 1 качают (4 участников всего) [ Обновить ]
Есть вопросы - пишите личное сообщение пользователю M0p94ok.
08:23
57
Нет комментариев. Ваш будет первым!