Поиск

(Funk, Soul) [CD] Sly & The Family Stone - Greatest Hits (1970) - 2015 {AFZ5 215}, FLAC (image+.cue), lossless

(Funk, Soul) [CD] Sly & The Family Stone - Greatest Hits (1970) - 2015 {AFZ5 215}, FLAC (image+.cue), lossless
Треклист:
Sly & The Family Stone - Greatest Hits (1970) Жанр: Funk, Soul
Носитель: CD
Год издания: 2015
Издатель (лейбл): Audio Fidelity
Номер по каталогу: AFZ5 215
Аудиокодек: FLAC (*.flac)
Тип рипа: image+.cue
Битрейт аудио: lossless
Продолжительность: 37:12
Rip by flac jacket
Наличие сканов в содержимом раздачи: да
Треклист:
01. I Want To Take You Higher (3:05)
02. Everybody Is A Star (3:04)
03. Stand! (3:10)
04. Life (3:01)
05. Fun (2:24)
06. You Can Make It If You Try (3:44)
07. Dance To The Music (3:00)
08. Everyday People (2:23)
09. Hot Fun In The Summertime (2:40)
10. M'Lady (2:45)
11. Sing A Simple Song (3:06)
12. Thank You (Falettinme Be Mice Elf Agin) (4:50)
 
 
Лог создания рипа
Exact Audio Copy V1.0 beta 2 from 29. April 2011
EAC extraction logfile from 20. October 2015, 11:08
Sly & The Family Stone / Greatest Hits [2015 Audio Fidelity]
Used drive : HL-DT-STBD-RE BH14NS40 Adapter: 0 ID: 2
Read mode : Secure
Utilize accurate stream : Yes
Defeat audio cache : Yes
Make use of C2 pointers : No
Read offset correction : 6
Overread into Lead-In and Lead-Out : No
Fill up missing offset samples with silence : Yes
Delete leading and trailing silent blocks : No
Null samples used in CRC calculations : Yes
Used interface : Native Win32 interface for Win NT & 2000
Used output format : User Defined Encoder
Selected bitrate : 1024 kBit/s
Quality : High
Add ID3 tag : No
Command line compressor : C:\Program Files (x86)\Exact Audio Copy\Flac\flac.exe
Additional command line options : -V -0 -T "artist=%albumartist%" -T "title=%title%" -T "album=%albumtitle%" -T "date=%year%" -T "genre=%genre%" -T "tracknumber=%tracknr%" %source%
TOC of the extracted CD
Track | Start | Length | Start sector | End sector
---------------------------------------------------------
1 | 0:00.00 | 3:04.59 | 0 | 13858
2 | 3:04.59 | 3:03.43 | 13859 | 27626
3 | 6:08.27 | 3:09.48 | 27627 | 41849
4 | 9:18.00 | 3:01.30 | 41850 | 55454
5 | 12:19.30 | 2:23.52 | 55455 | 66231
6 | 14:43.07 | 3:43.55 | 66232 | 83011
7 | 18:26.62 | 3:00.24 | 83012 | 96535
8 | 21:27.11 | 2:23.37 | 96536 | 107297
9 | 23:50.48 | 2:40.11 | 107298 | 119308
10 | 26:30.59 | 2:45.15 | 119309 | 131698
11 | 29:15.74 | 3:06.07 | 131699 | 145655
12 | 32:22.06 | 4:50.14 | 145656 | 167419
Range status and errors
Selected range
Filename C:\EAC\Sly & The Family Stone - (1970) Greatest Hits [2015 Audio Fidelity]\Sly & The Family Stone - Greatest Hits [2015 Audio Fidelity].wav
Peak level 96.1 %
Extraction speed 6.1 X
Range quality 100.0 %
Test CRC 10113E57
Copy CRC 10113E57
Copy OK
No errors occurred
AccurateRip summary
Track 1 accurately ripped (confidence 1) [F3711541] (AR v2)
Track 2 accurately ripped (confidence 1) [7AC605B7] (AR v2)
Track 3 accurately ripped (confidence 1) [4ECF1F7B] (AR v2)
Track 4 accurately ripped (confidence 1) [9312548A] (AR v2)
Track 5 accurately ripped (confidence 1) [AFAFE313] (AR v2)
Track 6 accurately ripped (confidence 1) [CFD5DADF] (AR v2)
Track 7 accurately ripped (confidence 1) [EC2F02BF] (AR v2)
Track 8 accurately ripped (confidence 1) [CEF81CC0] (AR v2)
Track 9 accurately ripped (confidence 1) [461934EA] (AR v2)
Track 10 accurately ripped (confidence 1) [34514CD5] (AR v2)
Track 11 accurately ripped (confidence 1) [BEA77598] (AR v2)
Track 12 accurately ripped (confidence 1) [7FA1A9BB] (AR v2)
All tracks accurately ripped
End of status report
==== Log checksum 5E7F89A1C97AD18BD7FCD092D3427C876CD594FE984E5DC1F5D07906223A0836 ====
 
Содержание индексной карты (.CUE)
REM GENRE Jazz
REM DATE 1970
REM DISCID A608B80C
REM COMMENT "ExactAudioCopy v1.0b2"
PERFORMER "Sly & The Family Stone"
TITLE "Greatest Hits [2015 Audio Fidelity]"
FILE "Sly & The Family Stone - Greatest Hits [2015 Audio Fidelity].flac" WAVE
TRACK 01 AUDIO
TITLE "I Want To Take You Higher"
PERFORMER "Sly & The Family Stone"
INDEX 01 00:00:00
TRACK 02 AUDIO
TITLE "Everybody Is A Star"
PERFORMER "Sly & The Family Stone"
INDEX 01 03:04:59
TRACK 03 AUDIO
TITLE "Stand!"
PERFORMER "Sly & The Family Stone"
INDEX 01 06:08:27
TRACK 04 AUDIO
TITLE "Life"
PERFORMER "Sly & The Family Stone"
INDEX 01 09:18:00
TRACK 05 AUDIO
TITLE "Fun"
PERFORMER "Sly & The Family Stone"
INDEX 01 12:19:30
TRACK 06 AUDIO
TITLE "You Can Make It If You Try"
PERFORMER "Sly & The Family Stone"
INDEX 01 14:43:07
TRACK 07 AUDIO
TITLE "Dance To The Music"
PERFORMER "Sly & The Family Stone"
INDEX 01 18:26:62
TRACK 08 AUDIO
TITLE "Everyday People"
PERFORMER "Sly & The Family Stone"
INDEX 01 21:27:11
TRACK 09 AUDIO
TITLE "Hot Fun In The Summertime"
PERFORMER "Sly & The Family Stone"
INDEX 01 23:50:48
TRACK 10 AUDIO
TITLE "M'Lady"
PERFORMER "Sly & The Family Stone"
INDEX 01 26:30:59
TRACK 11 AUDIO
TITLE "Sing A Simple Song"
PERFORMER "Sly & The Family Stone"
INDEX 01 29:15:74
TRACK 12 AUDIO
TITLE "Thank You (Falettinme Be Mice Elf Agin)"
PERFORMER "Sly & The Family Stone"
INDEX 01 32:22:06
Приватный:
Нет (DHT включён)
Размер:
361.70 Мб (379,267,616 байт) » файлов: 17
Участники:
0 раздают, 0 качают (0 участников всего)
Внешние участники:
1 раздают, 0 качают (1 участников всего) [ Обновить ]
Есть вопросы - пишите личное сообщение пользователю M0p94ok.
08:25
58
Нет комментариев. Ваш будет первым!