Поиск

(Soukous, Kwassa kwassa) [CD] Diblo Dibala & Loketo - Super Soukous - 1989, FLAC (tracks+.cue), lossless

(Soukous, Kwassa kwassa) [CD] Diblo Dibala & Loketo - Super Soukous - 1989, FLAC (tracks+.cue), lossless
Треклист:
Diblo Dibala & Loketo / Super Soukous
Жанр: Soukous, Kwassa kwassa
Носитель: CD
Страна-производитель диска (релиза): US
Год издания: 1989
Издатель (лейбл): Shanachie
Номер по каталогу: 64016
Страна исполнителя (группы): Democratic Republic of Congo
Аудиокодек: FLAC (*.flac)
Тип рипа: tracks+.cue
Битрейт аудио: lossless
Продолжительность: 00:31:00
Источник (релизер): what.cd, Wutcha
Наличие сканов в содержимом раздачи: нет
Треклист:
1. Super K
2. Etoula
3. Amour Et Souvenir
4. Bolinga
5. Kelele
 
Лог создания рипа
Exact Audio Copy V1.0 beta 3 from 29. August 2011
EAC extraction logfile from 15. September 2012, 11:00
Diblo Dibala / Super Soukous
Used drive : Optiarc DVD RW AD-7240S Adapter: 3 ID: 0
Read mode : Secure
Utilize accurate stream : Yes
Defeat audio cache : Yes
Make use of C2 pointers : No
Read offset correction : 48
Overread into Lead-In and Lead-Out : No
Fill up missing offset samples with silence : Yes
Delete leading and trailing silent blocks : No
Null samples used in CRC calculations : Yes
Used interface : Native Win32 interface for Win NT & 2000
Gap handling : Appended to previous track
Used output format : User Defined Encoder
Selected bitrate : 1024 kBit/s
Quality : High
Add ID3 tag : No
Command line compressor : C:\Program Files (x86)\FLAC\flac.exe
Additional command line options : -8 -V -T "ARTIST=%artist%" -T "TITLE=%title%" -T "ALBUM=%albumtitle%" -T "DATE=%year%" -T "TRACKNUMBER=%tracknr%" -T "GENRE=%genre%" -T "PERFORMER=%albuminterpret%" -T "COMPOSER=%composer%" %haslyrics%--tag-from-file=LYRICS="%lyricsfile%"%haslyrics% -T "ALBUMARTIST=%albumartist%" -T "DISCNUMBER=%cdnumber%" -T "TOTALDISCS=%totalcds%" -T "TOTALTRACKS=%numtracks%" -T "COMMENT=%comment%" %source% -o %dest%
TOC of the extracted CD
Track | Start | Length | Start sector | End sector
---------------------------------------------------------
1 | 0:00.00 | 8:06.68 | 0 | 36517
2 | 8:06.68 | 6:09.67 | 36518 | 64259
3 | 14:16.60 | 4:53.60 | 64260 | 86294
4 | 19:10.45 | 4:54.60 | 86295 | 108404
5 | 24:05.30 | 6:24.73 | 108405 | 137277
Track 1
Filename I:\Music\_EAC Rips\Diblo Dibala - Super Soukous (1989, Shanachie Records, Original Release) [CD][FLAC]\01 - Super K.wav
Pre-gap length 0:00:02.00
Peak level 99.7 %
Extraction speed 2.6 X
Track quality 100.0 %
Test CRC A30434F2
Copy CRC A30434F2
Accurately ripped (confidence 2) [E1A3C4A0] (AR v1)
Copy OK
Track 2
Filename I:\Music\_EAC Rips\Diblo Dibala - Super Soukous (1989, Shanachie Records, Original Release) [CD][FLAC]\02 - Etoula.wav
Pre-gap length 0:00:01.44
Peak level 87.4 %
Extraction speed 3.0 X
Track quality 100.0 %
Test CRC 508C104D
Copy CRC 508C104D
Accurately ripped (confidence 2) [E522311C] (AR v1)
Copy OK
Track 3
Filename I:\Music\_EAC Rips\Diblo Dibala - Super Soukous (1989, Shanachie Records, Original Release) [CD][FLAC]\03 - Amour Et Souvenir.wav
Pre-gap length 0:00:00.86
Peak level 98.2 %
Extraction speed 2.8 X
Track quality 99.9 %
Test CRC 2D571A0F
Copy CRC 2D571A0F
Accurately ripped (confidence 2) [1EC89B2F] (AR v1)
Copy OK
Track 4
Filename I:\Music\_EAC Rips\Diblo Dibala - Super Soukous (1989, Shanachie Records, Original Release) [CD][FLAC]\04 - Bolinga.wav
Pre-gap length 0:00:01.73
Peak level 89.0 %
Extraction speed 3.1 X
Track quality 99.9 %
Test CRC DDD1F07A
Copy CRC DDD1F07A
Accurately ripped (confidence 2) [271D6CA0] (AR v1)
Copy OK
Track 5
Filename I:\Music\_EAC Rips\Diblo Dibala - Super Soukous (1989, Shanachie Records, Original Release) [CD][FLAC]\05 - Kelele.wav
Pre-gap length 0:00:01.06
Peak level 99.7 %
Extraction speed 3.8 X
Track quality 100.0 %
Test CRC 07B58E92
Copy CRC 07B58E92
Accurately ripped (confidence 2) [2C0897FD] (AR v1)
Copy OK
All tracks accurately ripped
No errors occurred
End of status report
---- CUETools DB Plugin V2.1.3
[CTDB TOCID: SLtSbOc6YHet.Zy.DOsJd.MxdHQ-] found, Submit result: SLtSbOc6YHet.Zy.DOsJd.MxdHQ- has been uploaded
[3d5fb2fd] (1/1) Differs in 675 samples @00:06:15,00:09:52,00:10:62,00:11:53,00:17:28,00:20:16,00:20:54,00:21:17-00:21:18,00:22:50,00:24:20,00:30:23,00:35:12,00:42:23-00:42:24,00:43:18-00:43:19,00:46:25,00:47:34,00:48:11-00:48:12,00:49:46,00:54:61-00:54:62,01:11:52-01:11:53,01:23:51,02:13:19-02:13:20,02:59:40
You can use CUETools to repair this rip.
==== Log checksum 031A520DF62C9B2D0912AEEC79EDEDAC63526F3F4FA079BA00460E390B8B53AF ====
 
Содержание индексной карты (.CUE)
REM GENRE Soukouss
REM DATE 1989
REM DISCID 44072605
REM COMMENT "ExactAudioCopy v1.0b3"
PERFORMER "Diblo Dibala"
TITLE "Super Soukous"
FILE "01 - Super K.wav" WAVE
TRACK 01 AUDIO
TITLE "Super K"
PERFORMER "Diblo Dibala"
INDEX 01 00:00:00
TRACK 02 AUDIO
TITLE "Etoula"
PERFORMER "Diblo Dibala"
INDEX 00 08:05:35
FILE "02 - Etoula.wav" WAVE
INDEX 01 00:00:00
TRACK 03 AUDIO
TITLE "Amour Et Souvenir"
PERFORMER "Diblo Dibala"
INDEX 00 06:09:02
FILE "03 - Amour Et Souvenir.wav" WAVE
INDEX 01 00:00:00
TRACK 04 AUDIO
TITLE "Bolinga"
PERFORMER "Diblo Dibala"
INDEX 00 04:52:05
FILE "04 - Bolinga.wav" WAVE
INDEX 01 00:00:00
TRACK 05 AUDIO
TITLE "Kelele"
PERFORMER "Diblo Dibala"
INDEX 00 04:53:55
FILE "05 - Kelele.wav" WAVE
INDEX 01 00:00:00
 
Состав
Remy Solomon - bass
Mack Macaire - drums
Diblo - guitar
Kazidona - guitar [rhythm]
Diblo, Mack Macaire - maracas
Avrlus Mabele*, Mack Macaire - percussion
Ronald Rubinel - synthesizer
Avrlus Mabele*, Diblo Dibala, Jean Baron, Kanda Bongo Man, Kichar Kilesa, Mav Cacharel - vocals
22:20
272
Нет комментариев. Ваш будет первым!