Поиск

(World Fusion, Ethnic Jazz, Latin Jazz, Mambo) [CD] Perez Prado - Mambo Time - 1999, FLAC (tracks+.cue), lossless

(World Fusion, Ethnic Jazz, Latin Jazz, Mambo) [CD] Perez Prado - Mambo Time - 1999, FLAC (tracks+.cue), lossless
Треклист:
Perez Prado / Mambo Time
Жанр: World Fusion, Ethnic Jazz, Latin Jazz, Mambo
Носитель: CD
Страна-производитель диска (релиза): Germany
Год издания: 1999
Издатель (лейбл): Kiosk Audio Video Cassetten GmbH
Номер по каталогу: CBU62534
Аудиокодек: FLAC (*.flac)
Тип рипа: tracks+.cue
Битрейт аудио: lossless
Продолжительность: 0:46:23.
Источник (релизер): clustert
Наличие сканов в содержимом раздачи: да
Треклист:
01. Mambo No 8 [0:02:44.22]
02. Silbano Mambo [0:02:39.45]
03. Mambo No 5 [0:02:18.17]
04. Que Rico El Mambo [0:03:58.47]
05. Lupita [0:02:51.01]
06. Cerez Rosa [0:02:36.70]
07. Mambo A La Kenton [0:03:24.60]
08. Mambo Ni Hablar [0:02:47.37]
09. La Nina Po Pof [0:02:45.23]
10. Patricia [0:02:27.39]
11. Maria Bonita [0:03:05.17]
12. El Ruletero [0:04:32.22]
13. Norma De Guadalajara [0:03:02.16]
14. El Taconazo [0:04:08.39]
15. Mambo Del Amor [0:03:01.00]
 
Лог создания рипа
Exact Audio Copy V1.0 beta 3 from 29. August 2011
Отчёт EAC об извлечении, выполненном 29. октября 2016, 15:52
Perez Prado / Mambo Time
Дисковод: ASUS DRW-1814BLT Adapter: 4 ID: 0
Режим чтения : Достоверность
Использование точного потока : Да
Отключение кэша аудио : Да
Использование указателей C2 : Нет
Коррекция смещения при чтении : 6
Способность читать области Lead-in и Lead-out : Нет
Заполнение пропущенных сэмплов тишиной : Да
Удаление блоков с тишиной в начале и конце : Нет
При вычислениях CRC использовались нулевые сэмплы : Да
Интерфейс : Встроенный Win32-интерфейс для Win NT/2000
Обработка зазоров : Добавлено к предыдущему треку
Выходной формат : Пользовательский кодировщик
Выбранный битрейт : 128 kBit/s
Качество : Высокий
Добавление ID3-тега : Нет
Утилита сжатия : C:\Program Files\Exact Audio Copy\Flac\flac.exe
Дополнительные параметры : -V -8 -T "Genre=%genre%" -T "Artist=%artist%" -T "Title=%title%" -T "Album=%albumtitle%" -T "Date=%year%" -T "Tracknumber=%tracknr%" -T "Comment=EAC1.0b2 FLAC -8" %source%
TOC извлечённого CD
Трек | Старт | Длительность | Начальный сектор | Конечный сектор
---------------------------------------------------------------------
1 | 0:00.00 | 2:44.22 | 0 | 12321
2 | 2:44.22 | 2:39.45 | 12322 | 24291
3 | 5:23.67 | 2:18.17 | 24292 | 34658
4 | 7:42.09 | 3:58.47 | 34659 | 52555
5 | 11:40.56 | 2:51.01 | 52556 | 65381
6 | 14:31.57 | 2:36.70 | 65382 | 77151
7 | 17:08.52 | 3:24.60 | 77152 | 92511
8 | 20:33.37 | 2:47.37 | 92512 | 105073
9 | 23:20.74 | 2:45.23 | 105074 | 117471
10 | 26:06.22 | 2:27.39 | 117472 | 128535
11 | 28:33.61 | 3:05.17 | 128536 | 142427
12 | 31:39.03 | 4:32.22 | 142428 | 162849
13 | 36:11.25 | 3:02.16 | 162850 | 176515
14 | 39:13.41 | 4:08.39 | 176516 | 195154
15 | 43:22.05 | 3:01.00 | 195155 | 208729
Трек 1
Имя файла R:\Раздача 68\Perez Prado - 1999 - Mambo Time\01 Mambo No 8 .wav
Длина предзазора 0:00:02.00
Пиковый уровень 100.0 %
Скорость извлечения 4.6 X
Качество трека 100.0 %
CRC теста 65C07A4C
CRC копии 65C07A4C
Точное извлечение (достоверность 1) [18E5A332] (AR v2)
Копирование... OK
Трек 2
Имя файла R:\Раздача 68\Perez Prado - 1999 - Mambo Time\02 Silbano Mambo .wav
Пиковый уровень 95.2 %
Скорость извлечения 5.0 X
Качество трека 100.0 %
CRC теста CB4C12A5
CRC копии CB4C12A5
Точное извлечение (достоверность 1) [B406FCB2] (AR v2)
Копирование... OK
Трек 3
Имя файла R:\Раздача 68\Perez Prado - 1999 - Mambo Time\03 Mambo No 5 .wav
Пиковый уровень 93.4 %
Скорость извлечения 5.1 X
Качество трека 100.0 %
CRC теста B9383B58
CRC копии B9383B58
Точное извлечение (достоверность 1) [27537873] (AR v2)
Копирование... OK
Трек 4
Имя файла R:\Раздача 68\Perez Prado - 1999 - Mambo Time\04 Que Rico El Mambo .wav
Пиковый уровень 95.9 %
Скорость извлечения 6.0 X
Качество трека 100.0 %
CRC теста 568CE4FB
CRC копии 568CE4FB
Точное извлечение (достоверность 1) [4878B9A8] (AR v2)
Копирование... OK
Трек 5
Имя файла R:\Раздача 68\Perez Prado - 1999 - Mambo Time\05 Lupita .wav
Пиковый уровень 93.9 %
Скорость извлечения 6.0 X
Качество трека 100.0 %
CRC теста B016CCB0
CRC копии B016CCB0
Точное извлечение (достоверность 1) [50EBAD02] (AR v2)
Копирование... OK
Трек 6
Имя файла R:\Раздача 68\Perez Prado - 1999 - Mambo Time\06 Cerez Rosa .wav
Пиковый уровень 91.8 %
Скорость извлечения 6.2 X
Качество трека 100.0 %
CRC теста C439E085
CRC копии C439E085
Точное извлечение (достоверность 1) [CE20667D] (AR v2)
Копирование... OK
Трек 7
Имя файла R:\Раздача 68\Perez Prado - 1999 - Mambo Time\07 Mambo A La Kenton .wav
Пиковый уровень 92.3 %
Скорость извлечения 6.8 X
Качество трека 100.0 %
CRC теста 2774ED76
CRC копии 2774ED76
Точное извлечение (достоверность 1) [AD28C9E9] (AR v2)
Копирование... OK
Трек 8
Имя файла R:\Раздача 68\Perez Prado - 1999 - Mambo Time\08 Mambo Ni Hablar .wav
Пиковый уровень 100.0 %
Скорость извлечения 6.8 X
Качество трека 100.0 %
CRC теста 628B97FB
CRC копии 628B97FB
Точное извлечение (достоверность 1) [160E2BEC] (AR v2)
Копирование... OK
Трек 9
Имя файла R:\Раздача 68\Perez Prado - 1999 - Mambo Time\09 La Nina Po Pof .wav
Пиковый уровень 98.6 %
Скорость извлечения 5.1 X
Качество трека 99.9 %
CRC теста 7F6C2781
CRC копии 7F6C2781
Точное извлечение (достоверность 1) [C85993AD] (AR v2)
Копирование... OK
Трек 10
Имя файла R:\Раздача 68\Perez Prado - 1999 - Mambo Time\10 Patricia .wav
Пиковый уровень 97.5 %
Скорость извлечения 7.1 X
Качество трека 100.0 %
CRC теста C8E987AC
CRC копии C8E987AC
Точное извлечение (достоверность 1) [A12C25DE] (AR v2)
Копирование... OK
Трек 11
Имя файла R:\Раздача 68\Perez Prado - 1999 - Mambo Time\11 Maria Bonita .wav
Пиковый уровень 99.8 %
Скорость извлечения 5.6 X
Качество трека 99.9 %
CRC теста 00D1B568
CRC копии 00D1B568
Точное извлечение (достоверность 1) [9B23052E] (AR v2)
Копирование... OK
Трек 12
Имя файла R:\Раздача 68\Perez Prado - 1999 - Mambo Time\12 El Ruletero .wav
Пиковый уровень 95.4 %
Скорость извлечения 7.2 X
Качество трека 100.0 %
CRC теста 9646F300
CRC копии 9646F300
Точное извлечение (достоверность 1) [BA443FC6] (AR v2)
Копирование... OK
Трек 13
Имя файла R:\Раздача 68\Perez Prado - 1999 - Mambo Time\13 Norma De Guadalajara .wav
Пиковый уровень 96.7 %
Скорость извлечения 8.1 X
Качество трека 100.0 %
CRC теста 2EEC3092
CRC копии 2EEC3092
Точное извлечение (достоверность 1) [19AF18ED] (AR v2)
Копирование... OK
Трек 14
Имя файла R:\Раздача 68\Perez Prado - 1999 - Mambo Time\14 El Taconazo .wav
Пиковый уровень 99.8 %
Скорость извлечения 8.8 X
Качество трека 100.0 %
CRC теста EAB8B975
CRC копии EAB8B975
Точное извлечение (достоверность 1) [B789CD5B] (AR v2)
Копирование... OK
Трек 15
Имя файла R:\Раздача 68\Perez Prado - 1999 - Mambo Time\15 Mambo Del Amor .wav
Пиковый уровень 100.0 %
Скорость извлечения 8.5 X
Качество трека 100.0 %
CRC теста 769456F7
CRC копии 769456F7
Точное извлечение (достоверность 1) [9C06EB96] (AR v2)
Копирование... OK
Все треки извлечены точно
Ошибок не произошло
Конец отчёта
==== Контрольная сумма отчёта EB2C3DAA2CCA130F89801086A7F00E3776452CCDB3E32678AA9C39353EFC4E8F ====
 
Содержание индексной карты (.CUE)
REM GENRE Latin
REM DATE 1999
REM DISCID AD0ADF0F
REM COMMENT "ExactAudioCopy v1.0b3"
CATALOG 0000000000000
PERFORMER "Perez Prado"
TITLE "Mambo Time"
FILE "01 Mambo No 8 .wav" WAVE
TRACK 01 AUDIO
TITLE "Mambo No 8"
PERFORMER "Perez Prado"
FLAGS DCP
INDEX 01 00:00:00
FILE "02 Silbano Mambo .wav" WAVE
TRACK 02 AUDIO
TITLE "Silbano Mambo"
PERFORMER "Perez Prado"
FLAGS DCP
INDEX 01 00:00:00
FILE "03 Mambo No 5 .wav" WAVE
TRACK 03 AUDIO
TITLE "Mambo No 5"
PERFORMER "Perez Prado"
FLAGS DCP
INDEX 01 00:00:00
FILE "04 Que Rico El Mambo .wav" WAVE
TRACK 04 AUDIO
TITLE "Que Rico El Mambo"
PERFORMER "Perez Prado"
FLAGS DCP
INDEX 01 00:00:00
FILE "05 Lupita .wav" WAVE
TRACK 05 AUDIO
TITLE "Lupita"
PERFORMER "Perez Prado"
FLAGS DCP
INDEX 01 00:00:00
FILE "06 Cerez Rosa .wav" WAVE
TRACK 06 AUDIO
TITLE "Cerez Rosa"
PERFORMER "Perez Prado"
FLAGS DCP
INDEX 01 00:00:00
FILE "07 Mambo A La Kenton .wav" WAVE
TRACK 07 AUDIO
TITLE "Mambo A La Kenton"
PERFORMER "Perez Prado"
FLAGS DCP
INDEX 01 00:00:00
FILE "08 Mambo Ni Hablar .wav" WAVE
TRACK 08 AUDIO
TITLE "Mambo Ni Hablar"
PERFORMER "Perez Prado"
FLAGS DCP
INDEX 01 00:00:00
FILE "09 La Nina Po Pof .wav" WAVE
TRACK 09 AUDIO
TITLE "La Nina Po Pof"
PERFORMER "Perez Prado"
FLAGS DCP
INDEX 01 00:00:00
FILE "10 Patricia .wav" WAVE
TRACK 10 AUDIO
TITLE "Patricia"
PERFORMER "Perez Prado"
FLAGS DCP
INDEX 01 00:00:00
FILE "11 Maria Bonita .wav" WAVE
TRACK 11 AUDIO
TITLE "Maria Bonita"
PERFORMER "Perez Prado"
FLAGS DCP
INDEX 01 00:00:00
FILE "12 El Ruletero .wav" WAVE
TRACK 12 AUDIO
TITLE "El Ruletero"
PERFORMER "Perez Prado"
FLAGS DCP
INDEX 01 00:00:00
FILE "13 Norma De Guadalajara .wav" WAVE
TRACK 13 AUDIO
TITLE "Norma De Guadalajara"
PERFORMER "Perez Prado"
FLAGS DCP
INDEX 01 00:00:00
FILE "14 El Taconazo .wav" WAVE
TRACK 14 AUDIO
TITLE "El Taconazo"
PERFORMER "Perez Prado"
FLAGS DCP
INDEX 01 00:00:00
FILE "15 Mambo Del Amor .wav" WAVE
TRACK 15 AUDIO
TITLE "Mambo Del Amor"
PERFORMER "Perez Prado"
FLAGS DCP
INDEX 01 00:00:00
22:19
296
Нет комментариев. Ваш будет первым!