Поиск

(Afro-Cuban Jazz, Afrobeat) [CD] Hugh Masekela - Sixty - 1999, FLAC (tracks+.cue), lossless

(Afro-Cuban Jazz, Afrobeat) [CD] Hugh Masekela - Sixty - 1999, FLAC (tracks+.cue), lossless
Hugh Masekela - Sixty
Жанр: Afro-Cuban Jazz, Afrobeat
Носитель: CD
Страна-производитель диска (релиза): EU
Год издания: 1999
Издатель (лейбл): Columbia
Номер по каталогу: COL 495227 2
Аудиокодек: FLAC (*.flac)
Тип рипа: tracks+.cue
Битрейт аудио: lossless
Продолжительность: 70:33
Источник (релизер): daport (what)
Наличие сканов в содержимом раздачи: да
Треклист:
01. Mbombela (5:28)
02. Mamoriri (4:21)
03. Thanayi (5:31)
04. Fela (5:34)
05. Ziphi'nkomo (6:49)
06. Tamati so so (7:29)
07. Nomalizo (6:32)
08. Lizzy (6:16)
09. Bo Masekela (5:20)
10. Been Such a Long Time Gone (4:30)
11. Shango (5:30)
12. Mgewundini (5:34)
13. Koshana (1:39)
 
Лог создания рипа
Exact Audio Copy V1.1 from 23. June 2015
EAC extraction logfile from 1. November 2016, 13:10
Hugh Masekela / Sixty
Used drive : TEAC DVD+-RW DVW28SLC Adapter: 1 ID: 0
Read mode : Secure
Utilize accurate stream : Yes
Defeat audio cache : Yes
Make use of C2 pointers : No
Read offset correction : 48
Overread into Lead-In and Lead-Out : No
Fill up missing offset samples with silence : Yes
Delete leading and trailing silent blocks : No
Null samples used in CRC calculations : Yes
Used interface : Native Win32 interface for Win NT & 2000
Gap handling : Appended to previous track
Used output format : User Defined Encoder
Selected bitrate : 1024 kBit/s
Quality : High
Add ID3 tag : No
Command line compressor : C:\Program Files (x86)\Exact Audio Copy\Flac\flac.exe
Additional command line options : -8 -V -T "ARTIST=%artist%" -T "TITLE=%title%" -T "ALBUM=%albumtitle%" -T "DATE=%year%" -T "TRACKNUMBER=%tracknr%" -T "GENRE=%genre%" -T "PERFORMER=%albuminterpret%" -T "COMPOSER=%composer%" %haslyrics%--tag-from-file=LYRICS="%lyricsfile%"%haslyrics% -T "ALBUMARTIST=%albumartist%" -T "DISCNUMBER=%cdnumber%" -T "TOTALDISCS=%totalcds%" -T "TOTALTRACKS=%numtracks%" -T "COMMENT=%comment%" %source% -o %dest%
TOC of the extracted CD
Track | Start | Length | Start sector | End sector
---------------------------------------------------------
1 | 0:00.00 | 5:28.20 | 0 | 24619
2 | 5:28.20 | 4:21.22 | 24620 | 44216
3 | 9:49.42 | 5:31.23 | 44217 | 69064
4 | 15:20.65 | 5:33.67 | 69065 | 94106
5 | 20:54.57 | 6:48.60 | 94107 | 124766
6 | 27:43.42 | 7:28.70 | 124767 | 158436
7 | 35:12.37 | 6:32.13 | 158437 | 187849
8 | 41:44.50 | 6:15.42 | 187850 | 216016
9 | 48:00.17 | 5:20.18 | 216017 | 240034
10 | 53:20.35 | 4:29.57 | 240035 | 260266
11 | 57:50.17 | 5:30.10 | 260267 | 285026
12 | 63:20.27 | 5:34.13 | 285027 | 310089
13 | 68:54.40 | 1:38.57 | 310090 | 317496
Track 1
Filename D:\RIPs\Hugh Masekela - Sixty (1999) [FLAC]\01 - Mbombela.wav
Pre-gap length 0:00:02.00
Peak level 98.7 %
Extraction speed 3.0 X
Track quality 100.0 %
Test CRC 4067DAB6
Copy CRC 4067DAB6
Accurately ripped (confidence 6) [FF23EF32] (AR v2)
Copy OK
Track 2
Filename D:\RIPs\Hugh Masekela - Sixty (1999) [FLAC]\02 - Mamoriri.wav
Pre-gap length 0:00:02.40
Peak level 98.7 %
Extraction speed 3.0 X
Track quality 99.9 %
Test CRC DB478EF5
Copy CRC DB478EF5
Accurately ripped (confidence 6) [F372BA6F] (AR v2)
Copy OK
Track 3
Filename D:\RIPs\Hugh Masekela - Sixty (1999) [FLAC]\03 - Thanayi.wav
Pre-gap length 0:00:01.09
Peak level 98.8 %
Extraction speed 3.4 X
Track quality 99.9 %
Test CRC 0081C1B3
Copy CRC 0081C1B3
Accurately ripped (confidence 6) [6DBD3DFA] (AR v2)
Copy OK
Track 4
Filename D:\RIPs\Hugh Masekela - Sixty (1999) [FLAC]\04 - Fela.wav
Pre-gap length 0:00:01.86
Peak level 98.7 %
Extraction speed 4.0 X
Track quality 100.0 %
Test CRC 6FCC3898
Copy CRC 6FCC3898
Accurately ripped (confidence 6) [07526AC2] (AR v2)
Copy OK
Track 5
Filename D:\RIPs\Hugh Masekela - Sixty (1999) [FLAC]\05 - Ziphi 'nkomo.wav
Peak level 98.7 %
Extraction speed 4.1 X
Track quality 100.0 %
Test CRC 1622FA42
Copy CRC 1622FA42
Accurately ripped (confidence 6) [37FF6D21] (AR v2)
Copy OK
Track 6
Filename D:\RIPs\Hugh Masekela - Sixty (1999) [FLAC]\06 - Tamati So So.wav
Peak level 99.1 %
Extraction speed 4.3 X
Track quality 100.0 %
Test CRC DD885CFB
Copy CRC DD885CFB
Accurately ripped (confidence 6) [27C534EE] (AR v2)
Copy OK
Track 7
Filename D:\RIPs\Hugh Masekela - Sixty (1999) [FLAC]\07 - Nomalizo.wav
Pre-gap length 0:00:03.26
Peak level 99.9 %
Extraction speed 4.0 X
Track quality 100.0 %
Test CRC 6EC86F57
Copy CRC 6EC86F57
Accurately ripped (confidence 6) [F2B056F4] (AR v2)
Copy OK
Track 8
Filename D:\RIPs\Hugh Masekela - Sixty (1999) [FLAC]\08 - Lizzy.wav
Pre-gap length 0:00:01.64
Peak level 98.8 %
Extraction speed 4.2 X
Track quality 100.0 %
Test CRC BC50F085
Copy CRC BC50F085
Accurately ripped (confidence 6) [916F3FFA] (AR v2)
Copy OK
Track 9
Filename D:\RIPs\Hugh Masekela - Sixty (1999) [FLAC]\09 - Bo Masekela.wav
Pre-gap length 0:00:01.60
Peak level 98.7 %
Extraction speed 5.3 X
Track quality 100.0 %
Test CRC 8AB6341E
Copy CRC 8AB6341E
Accurately ripped (confidence 6) [FAC7F971] (AR v2)
Copy OK
Track 10
Filename D:\RIPs\Hugh Masekela - Sixty (1999) [FLAC]\10 - Been Such a Long Time Gone.wav
Pre-gap length 0:00:02.04
Peak level 98.7 %
Extraction speed 5.3 X
Track quality 100.0 %
Test CRC EBF007A2
Copy CRC EBF007A2
Accurately ripped (confidence 6) [4E9E72F2] (AR v2)
Copy OK
Track 11
Filename D:\RIPs\Hugh Masekela - Sixty (1999) [FLAC]\11 - Shango.wav
Pre-gap length 0:00:01.02
Peak level 98.7 %
Extraction speed 5.6 X
Track quality 100.0 %
Test CRC 7F1CB692
Copy CRC 7F1CB692
Accurately ripped (confidence 6) [3327618A] (AR v2)
Copy OK
Track 12
Filename D:\RIPs\Hugh Masekela - Sixty (1999) [FLAC]\12 - Mgewundini.wav
Peak level 98.7 %
Extraction speed 5.8 X
Track quality 100.0 %
Test CRC 01AE7138
Copy CRC 01AE7138
Accurately ripped (confidence 6) [712851DC] (AR v2)
Copy OK
Track 13
Filename D:\RIPs\Hugh Masekela - Sixty (1999) [FLAC]\13 - Koshana.wav
Pre-gap length 0:00:16.73
Peak level 97.2 %
Extraction speed 4.8 X
Track quality 100.0 %
Test CRC 33D65DB9
Copy CRC 33D65DB9
Accurately ripped (confidence 6) [74105693] (AR v2)
Copy OK
All tracks accurately ripped
No errors occurred
End of status report
---- CUETools DB Plugin V2.1.6
[CTDB TOCID: EZXOn9ivT4NKNkrCI0Ocuqh8_7s-] found
Submit result: EZXOn9ivT4NKNkrCI0Ocuqh8_7s- has been confirmed
Track | CTDB Status
1 | (1/1) Accurately ripped
2 | (1/1) Accurately ripped
3 | (1/1) Accurately ripped
4 | (1/1) Accurately ripped
5 | (1/1) Accurately ripped
6 | (1/1) Accurately ripped
7 | (1/1) Accurately ripped
8 | (1/1) Accurately ripped
9 | (1/1) Accurately ripped
10 | (1/1) Accurately ripped
11 | (1/1) Accurately ripped
12 | (1/1) Accurately ripped
13 | (1/1) Accurately ripped
==== Log checksum 90392C6689CD009BD0B454EB2F580A240CD4ABB8E54BA2F8A5496F921C1F0B33 ====
 
Содержание индексной карты (.CUE)
REM GENRE Jazz
REM DATE 1999
REM DISCID 9F10890D
REM COMMENT "ExactAudioCopy v1.1"
PERFORMER "Hugh Masekela"
TITLE "Sixty"
FILE "01 - Mbombela.wav" WAVE
TRACK 01 AUDIO
TITLE "Mbombela"
PERFORMER "Hugh Masekela"
INDEX 01 00:00:00
TRACK 02 AUDIO
TITLE "Mamoriri"
PERFORMER "Hugh Masekela"
INDEX 00 05:25:65
FILE "02 - Mamoriri.wav" WAVE
INDEX 01 00:00:00
TRACK 03 AUDIO
TITLE "Thanayi"
PERFORMER "Hugh Masekela"
INDEX 00 04:20:15
FILE "03 - Thanayi.wav" WAVE
INDEX 01 00:00:00
TRACK 04 AUDIO
TITLE "Fela"
PERFORMER "Hugh Masekela"
INDEX 00 05:29:33
FILE "04 - Fela.wav" WAVE
INDEX 01 00:00:00
FILE "05 - Ziphi'nkomo.wav" WAVE
TRACK 05 AUDIO
TITLE "Ziphi'nkomo"
PERFORMER "Hugh Masekela"
INDEX 01 00:00:00
FILE "06 - Tamati so so.wav" WAVE
TRACK 06 AUDIO
TITLE "Tamati so so"
PERFORMER "Hugh Masekela"
INDEX 01 00:00:00
TRACK 07 AUDIO
TITLE "Nomalizo"
PERFORMER "Hugh Masekela"
INDEX 00 07:25:50
FILE "07 - Nomalizo.wav" WAVE
INDEX 01 00:00:00
TRACK 08 AUDIO
TITLE "Lizzy"
PERFORMER "Hugh Masekela"
INDEX 00 06:30:40
FILE "08 - Lizzy.wav" WAVE
INDEX 01 00:00:00
TRACK 09 AUDIO
TITLE "Bo Masekela"
PERFORMER "Hugh Masekela"
INDEX 00 06:13:72
FILE "09 - Bo Masekela.wav" WAVE
INDEX 01 00:00:00
TRACK 10 AUDIO
TITLE "Been Such a Long Time Gone"
PERFORMER "Hugh Masekela"
INDEX 00 05:18:15
FILE "10 - Been Such a Long Time Gone.wav" WAVE
INDEX 01 00:00:00
TRACK 11 AUDIO
TITLE "Shango"
PERFORMER "Hugh Masekela"
INDEX 00 04:28:55
FILE "11 - Shango.wav" WAVE
INDEX 01 00:00:00
FILE "12 - Mgewundini.wav" WAVE
TRACK 12 AUDIO
TITLE "Mgewundini"
PERFORMER "Hugh Masekela"
INDEX 01 00:00:00
TRACK 13 AUDIO
TITLE "Koshana"
PERFORMER "Hugh Masekela"
INDEX 00 05:17:33
FILE "13 - Koshana.wav" WAVE
INDEX 01 00:00:00
 
Отчет CUETools
[CUETools log; Date: 03.11.2016 11:24:21; Version: 2.1.5]
[CTDB TOCID: EZXOn9ivT4NKNkrCI0Ocuqh8_7s-] found.
Track | CTDB Status
1 | (2/2) Accurately ripped
2 | (2/2) Accurately ripped
3 | (2/2) Accurately ripped
4 | (2/2) Accurately ripped
5 | (2/2) Accurately ripped
6 | (2/2) Accurately ripped
7 | (2/2) Accurately ripped
8 | (2/2) Accurately ripped
9 | (2/2) Accurately ripped
10 | (2/2) Accurately ripped
11 | (2/2) Accurately ripped
12 | (2/2) Accurately ripped
13 | (2/2) Accurately ripped
[AccurateRip ID: 0023955c-0164f310-9f10890d] found.
Track [ CRC | V2 ] Status
01 [9d0eb65e|ff23ef32] (04+06/10) Accurately ripped
02 [61efa19d|f372ba6f] (04+06/10) Accurately ripped
03 [420b5a5b|6dbd3dfa] (04+06/10) Accurately ripped
04 [70a0606e|07526ac2] (04+06/10) Accurately ripped
05 [f9ab01a2|37ff6d21] (04+06/10) Accurately ripped
06 [8478e5db|27c534ee] (04+06/10) Accurately ripped
07 [069d46ab|f2b056f4] (03+06/09) Accurately ripped
08 [8c633a26|916f3ffa] (04+06/10) Accurately ripped
09 [43f013b7|fac7f971] (04+06/10) Accurately ripped
10 [1e8c5716|4e9e72f2] (04+06/10) Accurately ripped
11 [27b86b4b|3327618a] (04+06/10) Accurately ripped
12 [14510d40|712851dc] (04+06/10) Accurately ripped
13 [ebfd56c0|74105693] (03+06/09) Accurately ripped
Track Peak [ CRC32 ] [W/O NULL] [ LOG ]
-- 99,9 [EA36E397] [E7339A38]
01 98,7 [4067DAB6] [33F618EC] CRC32
02 98,7 [DB478EF5] [53310AC1] CRC32
03 98,8 [0081C1B3] [219C1339] CRC32
04 98,7 [6FCC3898] [C263772D] CRC32
05 98,7 [1622FA42] [001C4069] CRC32
06 99,1 [DD885CFB] [B55F72DD] CRC32
07 99,9 [6EC86F57] [4DE85241] CRC32
08 98,8 [BC50F085] [39DF31A4] CRC32
09 98,7 [8AB6341E] [A5357B90] CRC32
10 98,7 [EBF007A2] [5ACA5BBF] CRC32
11 98,7 [7F1CB692] [1CF9DABB] CRC32
12 98,7 [01AE7138] [219C2129] CRC32
13 97,2 [33D65DB9] [B58A5649] CRC32
 
AllMusic Review by Adam Greenberg
Presumably to commemorate his 60th birthday, Hugh Masekela released an album of primarily African works. The album starts with a tribute to Fela, a kindred spirit in African horn playing and a friend of Masekela. After that, it moves on through a number of traditional songs and trips down memory lane. The liner notes give a good deal of background information on each of the songs (always a plus). From time to time, the music seems to slip into something of a contemporary Harry Belafonte-esque sound (which perhaps might not be completely surprising, given the repeated collaborations between Belafonte and Miriam Makeba, coupled with Masekela's marriage to Makeba). Despite (or due to) any such similarities that may arise, this is international pop at its best. Also, the backing vocals of the Family Factory group are exceptional, at the very least. For fans of "Grazin' in the Grass," this album might not be too well suited to you. For fans of basic African pop, jazz, highlife, and worldbeat, it's probably a good find.
 
Состав
Hugh Masakela - trumpet
Don Laka - various instruments, brass, strings, acoustic & electric pianos, bass
Arthur Tshabalala - acoustic & electric pianos, keyboards
John Selolwane, Kenny Matheba - guitar
Fana Zulu, Victor Ntoni - bass
Vusi Khumalo - drums
Dave Reynolds - steel drums
Godfrey Mgcino - percussion
Recorded at Down Town Studios.
22:20
243
Нет комментариев. Ваш будет первым!