Поиск

(SmoothJazz) Peter White - Perfect Moment - 1998, APE (image+cue) lossless

Треклист:
Peter White - Perfect Moment
Жанр: Smooth Jazz
Год выпуска: 1998
Формат: APE (image+cue)
Трэклист:
Peter White : Perfect Moment
1. San Diego
2. Kinda Sweet - featuring Rick Braun
3. Midnight in Manhattan - Featuring Grover Washington Jr.
4. Perfect Moment
5. Don't Want to Be a Fool - featuring Gerald Albright
6. Autumn Day -Featuring Greg Vail
7. My Prayer
8. Another Rainy Day - featuring Gerald Albright
9. The View from Your Window
10. Windy City
 
Отчёт EAC
Exact Audio Copy V0.99 prebeta 3 from 28. July 2007
Отчёт EAC об извлечении, выполненном 18. ноября 2007, 13:26
Peter White / Perfect Moment
Дисковод: _NEC DVD_RW ND-2500A Adapter: 3 ID: 0
Режим чтения : Достоверность
Использование точного потока : Да
Отключение кэша аудио : Нет
Использование указателей C2 : Нет
Комбинированное смещение чтения/записи : 0
Способность читать области Lead-in и Lead-out : Нет
Заполнение пропущенных сэмплов тишиной : Да
Удаление блоков с тишиной в начале и конце : Нет
При вычислениях CRC использовались нулевые сэмплы : Нет
Интерфейс : Встроенный Win32-интерфейс для Win NT/2000
Выходной формат : Внутренние WAV-операции
Формат сэмплов : 44.100 Гц; 16 бит; стерео
TOC извлечённого CD
Трек | Старт | Длительность | Начальный сектор | Конечный сектор
---------------------------------------------------------------------
1 | 0:00.00 | 5:00.42 | 0 | 22541
2 | 5:00.42 | 4:36.47 | 22542 | 43288
3 | 9:37.14 | 4:49.64 | 43289 | 65027
4 | 14:27.03 | 4:46.13 | 65028 | 86490
5 | 19:13.16 | 5:06.25 | 86491 | 109465
6 | 24:19.41 | 4:34.39 | 109466 | 130054
7 | 28:54.05 | 4:26.51 | 130055 | 150055
8 | 33:20.56 | 5:38.49 | 150056 | 175454
9 | 38:59.30 | 4:37.52 | 175455 | 196281
10 | 43:37.07 | 4:12.18 | 196282 | 215199
Характеристики диапазона извлечения и сообщения об ошибках
Выбранный диапазон
Имя файла D:\5.Мои Документы\Downloads\Peter White - Perfect Moment - 1998\Peter White - Perfect Moment.wav
Пиковый уровень 100.0 %
Качество диапазона 100.0 %
CRC копии 4FBCEB5B
Копирование... OK
Приватный:
Нет (DHT включён)
Размер:
288.81 Мб (302,834,996 байт) » файлов: 5
Участники:
0 раздают, 0 качают (0 участников всего)
Внешние участники:
1 раздают, 0 качают (1 участников всего) [ Обновить ]
11:28
17
Нет комментариев. Ваш будет первым!