Поиск

(Smooth Jazz) Peter White - Promenade - 1993, APE (image + .cue), lossless

(Smooth Jazz) Peter White - Promenade - 1993, APE (image + .cue), lossless
Треклист:
Peter White - Promenade
Жанр: Smooth Jazz
Год выпуска: 1993
Формат: APE (image + .cue)
Битрейт аудио: lossless
Трэклист:
Peter White : Promenade
1. Promenade
2. Undercover - featuring Dave Camp
3. Piece of the City - featuring Bernard Oattes
4. Peeto Bandito
5. What's Going On- featuring Boney James
6. By Candlelight
7. Boulevard
8. Reason to Live - featuring Bernard Oattes
9. Deep in My Heart - Featuring Boney James
10. The Storm
11. November
 
Отчёт EAC
Exact Audio Copy V0.99 prebeta 3 from 28. July 2007
Отчёт EAC об извлечении, выполненном 19. ноября 2007, 18:53
Peter White / Promenade
Дисковод: _NEC DVD_RW ND-2500A Adapter: 3 ID: 0
Режим чтения : Достоверность
Использование точного потока : Да
Отключение кэша аудио : Да
Использование указателей C2 : Нет
Коррекция смещения при чтении : 48
Способность читать области Lead-in и Lead-out : Нет
Заполнение пропущенных сэмплов тишиной : Да
Удаление блоков с тишиной в начале и конце : Нет
При вычислениях CRC использовались нулевые сэмплы : Да
Интерфейс : Установленный внешний ASPI-интерфейс
Выходной формат : Внутренние WAV-операции
Формат сэмплов : 44.100 Гц; 16 бит; стерео
TOC извлечённого CD
Трек | Старт | Длительность | Начальный сектор | Конечный сектор
---------------------------------------------------------------------
1 | 0:00.00 | 4:41.41 | 0 | 21115
2 | 4:41.41 | 5:44.65 | 21116 | 46980
3 | 10:26.31 | 4:43.53 | 46981 | 68258
4 | 15:10.09 | 4:29.17 | 68259 | 88450
5 | 19:39.26 | 5:04.16 | 88451 | 111266
6 | 24:43.42 | 2:59.54 | 111267 | 124745
7 | 27:43.21 | 5:28.36 | 124746 | 149381
8 | 33:11.57 | 4:41.22 | 149382 | 170478
9 | 37:53.04 | 4:14.14 | 170479 | 189542
10 | 42:07.18 | 5:44.48 | 189543 | 215390
11 | 47:51.66 | 4:21.56 | 215391 | 235021
Характеристики диапазона извлечения и сообщения об ошибках
Выбранный диапазон
Имя файла D:\1.Music\Jazz & Smooth\Peter White [Smooth_Jazz]\1993-Promenade [lossless]\1993-Peter White-Promenade.wav
Пиковый уровень 96.8 %
Качество диапазона 100.0 %
CRC копии BA4FE59B
Копирование... OK
Ошибок не произошло
Конец отчёта
Приватный:
Нет (DHT включён)
Размер:
288.02 Мб (302,011,757 байт) » файлов: 5
Участники:
0 раздают, 0 качают (0 участников всего)
Внешние участники:
5 раздают, 1 качают (6 участников всего) [ Обновить ]
11:29
18
Нет комментариев. Ваш будет первым!