Поиск

(Jazz) Kenny G - Breathless - 1992, FLAC (tracks+.cue), lossless

Треклист:
Kenny G - Breathless
Жанр: Jazz
Год выпуска: 1992
Формат: FLAC (tracks+.cue)
Битрейт аудио: lossless
Трэклист:
1. The Joy Of Life
2. Forever In Love
3. In The Rain
4. Sentimental
5. By The Time This Night Is Over
6. End Of The Night
7. Alone
8. Morning
9. Even If My Heart Would Break
10. G-Bop
11. Sister Rose
12. A Year Ago
13. Homeland
14. The Wedding Song
Зарелизено на rutracker.org
и
Доп. информация:
Audio CD (November 17, 1992)
Original Release Date: November 17, 1992
Number of Discs: 1
Label: Arista
 
Лог извлечения EAC
EAC extraction logfile from 2. June 2007, 20:10 for CD
Kenny G / Breathless
Used drive : MATSHITADVD-RAM UJ-841S Adapter: 1 ID: 0
Read mode : Secure with NO C2, accurate stream, disable cache
Read offset correction : 102
Overread into Lead-In and Lead-Out : No
Used output format : C:\Program Files\Exact Audio Copy\flac.exe (User Defined Encoder)
192 kBit/s
Additional command line options : -8 -A tukey(0.25) -A gauss(0.1875) -b 4096 -V -T "artist=%a" -T "title=%t" -T "album=%g" -T "date=%y" -T "tracknumber=%n" -T "genre=%m" %s --sector-align
Other options :
Fill up missing offset samples with silence : Yes
Delete leading and trailing silent blocks : No
Installed external ASPI interface
Track 1
Filename C:\Documents and Settings\Jeff\My Documents\My Torrents\Kenny G\01 - Kenny G - The Joy Of Life.wav
Pre-gap length 0:00:02.00
Peak level 96.5 %
Track quality 100.0 %
Test CRC 32DDBEFE
Copy CRC 32DDBEFE
Copy OK
Track 2
Filename C:\Documents and Settings\Jeff\My Documents\My Torrents\Kenny G\02 - Kenny G - Forever In Love.wav
Pre-gap length 0:00:02.16
Peak level 66.5 %
Track quality 100.0 %
Test CRC 2F91F19A
Copy CRC 2F91F19A
Copy OK
Track 3
Filename C:\Documents and Settings\Jeff\My Documents\My Torrents\Kenny G\03 - Kenny G - In The Rain.wav
Pre-gap length 0:00:02.22
Peak level 87.8 %
Track quality 100.0 %
Test CRC 3CA1AA56
Copy CRC 3CA1AA56
Copy OK
Track 4
Filename C:\Documents and Settings\Jeff\My Documents\My Torrents\Kenny G\04 - Kenny G - Sentimental.wav
Pre-gap length 0:00:03.17
Peak level 86.5 %
Track quality 100.0 %
Test CRC 442BCEA0
Copy CRC 442BCEA0
Copy OK
Track 5
Filename C:\Documents and Settings\Jeff\My Documents\My Torrents\Kenny G\05 - Kenny G - By The Time This Night Is Over (With Peabo Bryson).wav
Pre-gap length 0:00:04.13
Peak level 88.5 %
Track quality 100.0 %
Test CRC FFD028B4
Copy CRC FFD028B4
Copy OK
Track 6
Filename C:\Documents and Settings\Jeff\My Documents\My Torrents\Kenny G\06 - Kenny G - End Of The Night.wav
Pre-gap length 0:00:03.13
Peak level 72.4 %
Track quality 100.0 %
Test CRC 7F7978C1
Copy CRC 7F7978C1
Copy OK
Track 7
Filename C:\Documents and Settings\Jeff\My Documents\My Torrents\Kenny G\07 - Kenny G - Alone.wav
Pre-gap length 0:00:03.46
Peak level 65.2 %
Track quality 100.0 %
Test CRC 2036F3A6
Copy CRC 2036F3A6
Copy OK
Track 8
Filename C:\Documents and Settings\Jeff\My Documents\My Torrents\Kenny G\08 - Kenny G - Morning.wav
Pre-gap length 0:00:02.56
Peak level 79.8 %
Track quality 100.0 %
Test CRC 5951E95C
Copy CRC 5951E95C
Copy OK
Track 9
Filename C:\Documents and Settings\Jeff\My Documents\My Torrents\Kenny G\09 - Kenny G - Even If My Heart Would Break (With Aaron Neville).wav
Pre-gap length 0:00:03.46
Peak level 90.4 %
Track quality 100.0 %
Test CRC B12A3093
Copy CRC B12A3093
Copy OK
Track 10
Filename C:\Documents and Settings\Jeff\My Documents\My Torrents\Kenny G\10 - Kenny G - G-Bop.wav
Pre-gap length 0:00:02.44
Peak level 78.4 %
Track quality 100.0 %
Test CRC E817F416
Copy CRC E817F416
Copy OK
Track 11
Filename C:\Documents and Settings\Jeff\My Documents\My Torrents\Kenny G\11 - Kenny G - Sister Rose.wav
Pre-gap length 0:00:03.20
Peak level 69.5 %
Track quality 100.0 %
Test CRC A38FD1FD
Copy CRC A38FD1FD
Copy OK
Track 12
Filename C:\Documents and Settings\Jeff\My Documents\My Torrents\Kenny G\12 - Kenny G - A Year Ago.wav
Pre-gap length 0:00:03.46
Peak level 83.1 %
Track quality 100.0 %
Test CRC 8CDE0442
Copy CRC 8CDE0442
Copy OK
Track 13
Filename C:\Documents and Settings\Jeff\My Documents\My Torrents\Kenny G\13 - Kenny G - Homeland.wav
Pre-gap length 0:00:02.80
Peak level 98.0 %
Track quality 100.0 %
Test CRC 238217D2
Copy CRC 238217D2
Copy OK
Track 14
Filename C:\Documents and Settings\Jeff\My Documents\My Torrents\Kenny G\14 - Kenny G - The Wedding Song.wav
Pre-gap length 0:00:03.30
Peak level 65.9 %
Track quality 100.0 %
Test CRC E6C65641
Copy CRC E6C65641
Copy OK
No errors occured
End of status report
Скачивание доступно после регистрации!!
Приватный:
Нет (DHT включён)
Размер:
411.11 Мб (431,083,579 байт) » файлов: 18
Участники:
0 раздают, 0 качают (0 участников всего)
Внешние участники:
11 раздают, 4 качают (15 участников всего) [ Обновить ]
11:28
15
Нет комментариев. Ваш будет первым!