Поиск

(Smooth Urban Jazz) Bona Fide - The Poe House - 2001, APE (image + .cue), lossless

(Smooth Urban Jazz) Bona Fide - The Poe House - 2001, APE (image + .cue), lossless
Треклист:
Bona Fide - The Poe House
Страна: USA
Жанр: Smooth Urban Jazz
Год выпуска: 2001
Формат: APE (image + .cue)
Битрейт аудио: lossless
Продолжительность: 63:11
Трэклист:
1. Club Charles
2. Willie Don
3. The Poe House
4. El Dorado
5. It's Love
6. Low Rider
7. Blaze
8. The Horse You Came In On
9. The Block
10. Nevermore
11. Schmoke
12. Tio Pepe
13. Goose
Preview
 
Файлы
Bona Fide - The Poe House (ape).cue
Bona Fide - The Poe House.ape
Bona Fide - The Poe House.cue
Bona Fide - The Poe House.log
Covers.ncd
tau.jpg
 
EAC Log
Exact Audio Copy V0.99 prebeta 4 from 23. January 2008
Отчёт EAC об извлечении, выполненном 20. марта 2008, 10:16
Bona Fide / The Poe House
Дисковод: _NEC DVD_RW ND-3550A Adapter: 1 ID: 0
Режим чтения : Достоверность
Использование точного потока : Да
Отключение кэша аудио : Да
Использование указателей C2 : Нет
Коррекция смещения при чтении : 48
Способность читать области Lead-in и Lead-out : Нет
Заполнение пропущенных сэмплов тишиной : Да
Удаление блоков с тишиной в начале и конце : Нет
При вычислениях CRC использовались нулевые сэмплы : Нет
Интерфейс : Встроенный Win32-интерфейс для Win NT/2000
Выходной формат : Внутренние WAV-операции
Формат сэмплов : 44.100 Гц; 16 бит; стерео
TOC извлечённого CD
Трек | Старт | Длительность | Начальный сектор | Конечный сектор
---------------------------------------------------------------------
1 | 0:00.00 | 4:34.73 | 0 | 20622
2 | 4:34.73 | 4:19.44 | 20623 | 40091
3 | 8:54.42 | 4:46.35 | 40092 | 61576
4 | 13:41.02 | 4:16.16 | 61577 | 80792
5 | 17:57.18 | 5:30.35 | 80793 | 105577
6 | 23:27.53 | 3:26.60 | 105578 | 121087
7 | 26:54.38 | 4:43.21 | 121088 | 142333
8 | 31:37.59 | 6:45.33 | 142334 | 172741
9 | 38:23.17 | 4:06.63 | 172742 | 191254
10 | 42:30.05 | 5:32.66 | 191255 | 216220
11 | 48:02.71 | 4:05.66 | 216221 | 234661
12 | 52:08.62 | 3:34.65 | 234662 | 250776
13 | 55:43.52 | 7:27.25 | 250777 | 284326
Характеристики диапазона извлечения и сообщения об ошибках
Выбранный диапазон
Имя файла F:\Images\Bona Fide\Bona Fide - The Poe House.wav
Пиковый уровень 99.8 %
Качество диапазона 100.0 %
CRC копии 663FC9DF
Копирование... OK
Ошибок не произошло
AccurateRip: сводка
Трек 1 точное извлечение (доверие 2) [01A85B90]
Трек 2 точное извлечение (доверие 2) [74C6F527]
Трек 3 точное извлечение (доверие 2) [0690D785]
Трек 4 точное извлечение (доверие 2) [B8E9BD1A]
Трек 5 точное извлечение (доверие 2) [BD82BB64]
Трек 6 точное извлечение (доверие 2) [8FE8FA15]
Трек 7 точное извлечение (доверие 2) [A000C7FC]
Трек 8 точное извлечение (доверие 2) [30751580]
Трек 9 точное извлечение (доверие 2) [CBD022C1]
Трек 10 точное извлечение (доверие 2) [269D5B9F]
Трек 11 точное извлечение (доверие 2) [BAF01AD6]
Трек 12 точное извлечение (доверие 2) [7256BC0F]
Трек 13 точное извлечение (доверие 2) [5274E055]
Все треки извлечены точно
Конец отчёта
 
tau
Silast начал заполнять прорехи на трекере. Данный альбом предназначается любителям фанка.
СОДЕРЖИТ НЕСКОЛЬКО НЕТЛЕННЫХ КРУТЯКОВ.
Скачивание доступно после регистрации!!
Приватный:
Нет (DHT включён)
Размер:
366.19 Мб (383,977,904 байт) » файлов: 6
Участники:
0 раздают, 0 качают (0 участников всего)
Внешние участники:
--- [ Обновить ]
11:49
5
Нет комментариев. Ваш будет первым!