Поиск

(Smooth Urban Jazz) Bona Fide - Soul Lounge - 2005, APE (image + .cue), lossless

Треклист:
Bona Fide - Soul Lounge
Страна: USA
Жанр: Smooth Urban Jazz
Год выпуска: 2005
Формат: APE (image + .cue)
Битрейт аудио: lossless
Продолжительность: 56:29
Трэклист:
1. Bona Fide Club
2. Funk Box
3. Soul Lounge
4. Girard's
5. Midnight Train
6. The Journey
7. Bromo Tower
8. Deep Chill
9. 23rd Of May
10. B. More Knights
11. Rosebank Gang
 
Файлы
Bona Fide - Soul Lounge.ape
Bona Fide - Soul Lounge.cue
Bona Fide - Soul Lounge.log
Covers.ncd
tau.jpg
 
EAC Log
Exact Audio Copy V0.99 prebeta 4 from 23. January 2008
Отчёт EAC об извлечении, выполненном 17. марта 2008, 16:42
Bona Fide / Soul Lounge
Дисковод: _NEC DVD_RW ND-3550A Adapter: 1 ID: 0
Режим чтения : Достоверность
Использование точного потока : Да
Отключение кэша аудио : Да
Использование указателей C2 : Нет
Коррекция смещения при чтении : 48
Способность читать области Lead-in и Lead-out : Нет
Заполнение пропущенных сэмплов тишиной : Да
Удаление блоков с тишиной в начале и конце : Нет
При вычислениях CRC использовались нулевые сэмплы : Нет
Интерфейс : Встроенный Win32-интерфейс для Win NT/2000
Выходной формат : Внутренние WAV-операции
Формат сэмплов : 44.100 Гц; 16 бит; стерео
TOC извлечённого CD
Трек | Старт | Длительность | Начальный сектор | Конечный сектор
---------------------------------------------------------------------
1 | 0:00.00 | 4:13.65 | 0 | 19039
2 | 4:13.65 | 4:10.15 | 19040 | 37804
3 | 8:24.05 | 6:37.45 | 37805 | 67624
4 | 15:01.50 | 7:20.00 | 67625 | 100624
5 | 22:21.50 | 3:28.05 | 100625 | 116229
6 | 25:49.55 | 4:14.22 | 116230 | 135301
7 | 30:04.02 | 3:05.05 | 135302 | 149181
8 | 33:09.07 | 13:00.08 | 149182 | 207689
9 | 46:09.15 | 3:59.47 | 207690 | 225661
10 | 50:08.62 | 2:57.20 | 225662 | 238956
11 | 53:06.07 | 3:23.45 | 238957 | 254226
Характеристики диапазона извлечения и сообщения об ошибках
Выбранный диапазон
Имя файла F:\Images\Bona Fide\Bona Fide - Soul Lounge.wav
Пиковый уровень 97.8 %
Качество диапазона 99.9 %
CRC копии 41349B05
Копирование... OK
Ошибок не произошло
AccurateRip: сводка
Трек 1 точность не определена (достоверность 2) [81A8ACA9], AccurateRip вернул [84301FE1]
Трек 2 точность не определена (достоверность 2) [E8150696], AccurateRip вернул [2B72FC86]
Трек 3 точность не определена (достоверность 2) [B55E28A0], AccurateRip вернул [4F844970]
Трек 4 точность не определена (достоверность 2) [3986FEEA], AccurateRip вернул [3ABCE762]
Трек 5 точность не определена (достоверность 2) [4C3AFBB9], AccurateRip вернул [047F10C2]
Трек 6 точность не определена (достоверность 2) [A0CBEC93], AccurateRip вернул [565628CE]
Трек 7 точность не определена (достоверность 2) [CD1F39D9], AccurateRip вернул [25D38E39]
Трек 8 точность не определена (достоверность 2) [32B6470D], AccurateRip вернул [CB653515]
Трек 9 точность не определена (достоверность 2) [149AEE7F], AccurateRip вернул [118C309F]
Трек 10 точность не определена (достоверность 2) [85202C96], AccurateRip вернул [D4D58BDE]
Трек 11 точность не определена (достоверность 2) [08A6B6C0], AccurateRip вернул [5F5600E0]
Ни один трек не прошёл проверки на точность
В вашей базе может быть иной вариант штамповки диска
Конец отчёта
 
tau
Скачивание доступно после регистрации!!
Приватный:
Нет (DHT включён)
Размер:
339.70 Мб (356,205,517 байт) » файлов: 6
Участники:
0 раздают, 0 качают (0 участников всего)
Внешние участники:
5 раздают, 2 качают (7 участников всего) [ Обновить ]
11:50
11
Нет комментариев. Ваш будет первым!