Поиск

2005 NILS - Pacific Coast Highway {Baja, TSR BCD 545} [CD]

2005 NILS - Pacific Coast Highway {Baja, TSR BCD 545} [CD]
Стили:
Дата издания диска:
25 января 2005
Носитель:
CD
Тип рипа:
image
Аудиокодек:
FLAC (*.flac)
Битрейт аудио:
lossless
Время звучания:
00:55:04
Наличие сканов:
буклет pdf
Лог создания рипа
Exact Audio Copy V1.3 from 2. September 2016

Отчёт EAC об извлечении, выполненном 4. мая 2018, 8:29

Nils / Pacific Coast Highway

Дисковод: HL-DT-STDVD+-RW GH82N   Adapter: 1  ID: 0

Режим чтения                 : Достоверность
Использование точного потока : Да
Отключение кэша аудио        : Да
Использование указателей C2  : Нет

Коррекция смещения при чтении                     : 667
Способность читать области Lead-in и Lead-out     : Нет
Заполнение пропущенных сэмплов тишиной            : Да
Удаление блоков с тишиной в начале и конце        : Нет
При вычислениях CRC использовались нулевые сэмплы : Да
Интерфейс                                         : Встроенный Win32-интерфейс для Win NT/2000

Выходной формат          : Пользовательский кодировщик
Выбранный битрейт        : 1024 kBit/s
Качество                 : Высокий
Добавление ID3-тега      : Нет
Утилита сжатия           : C:\Program Files (x86)\Exact Audio Copy\FLAC\FLAC.EXE
Дополнительные параметры : -8 -V -T "ARTIST=%artist%" -T "ALBUM=%albumtitle%" -T "DATE=%year%" -T "GENRE=%genre%" -T "COMMENT=ripped by izia1956" %source%


TOC извлечённого CD

     Трек |   Старт  | Длительность | Начальный сектор | Конечный сектор 
    ---------------------------------------------------------------------
       1  |  0:00.00 |    4:56.53   |           0      |      22252      
       2  |  4:56.53 |    4:17.65   |       22253      |      41592      
       3  |  9:14.43 |    4:52.43   |       41593      |      63535      
       4  | 14:07.11 |    4:46.23   |       63536      |      85008      
       5  | 18:53.34 |    5:12.57   |       85009      |     108465      
       6  | 24:06.16 |    4:42.17   |      108466      |     129632      
       7  | 28:48.33 |    5:02.54   |      129633      |     152336      
       8  | 33:51.12 |    3:58.64   |      152337      |     170250      
       9  | 37:50.01 |    4:53.03   |      170251      |     192228      
      10  | 42:43.04 |    4:57.41   |      192229      |     214544      
      11  | 47:40.45 |    3:29.41   |      214545      |     230260      
      12  | 51:10.11 |    3:54.32   |      230261      |     247842      


Характеристики диапазона извлечения и сообщения об ошибках

Выбранный диапазон

     Имя файла E:\BitComet\Nils (flac)\2005 - Pacific Coast Highway\Nils - Pacific Coast Highway.wav

     Пиковый уровень 98.8 %
     Скорость извлечения 3.3 X
     Качество диапазона 100.0 %
     CRC теста 9E801F94
     CRC копии 9E801F94
     Копирование... OK

Ошибок не произошло

 
AccurateRip: сводка
 
Трек  1  : извлечено точно (доверие 11)  [CEE1B499]  (AR v2)
Трек  2  : извлечено точно (доверие 11)  [36F33F11]  (AR v2)
Трек  3  : извлечено точно (доверие 11)  [6746D2E2]  (AR v2)
Трек  4  : извлечено точно (доверие 11)  [068341A4]  (AR v2)
Трек  5  : извлечено точно (доверие 11)  [BF1D1E72]  (AR v2)
Трек  6  : извлечено точно (доверие 11)  [1499E871]  (AR v2)
Трек  7  : извлечено точно (доверие 11)  [D3A2D47F]  (AR v2)
Трек  8  : извлечено точно (доверие 11)  [41CC7758]  (AR v2)
Трек  9  : извлечено точно (доверие 11)  [6DF4865D]  (AR v2)
Трек 10  : извлечено точно (доверие 11)  [7EDE7C74]  (AR v2)
Трек 11  : извлечено точно (доверие 10)  [A8CC0243]  (AR v2)
Трек 12  : извлечено точно (доверие 10)  [6C388A29]  (AR v2)
 
Все треки извлечены точно

Конец отчёта

==== Контрольная сумма отчёта 2AD1E0B6486A6EDBDBB26D14002A59B4A887003E5830E135FC2C57329F7F4274 ====
Содержание индексной карты (.CUE)
REM GENRE "Smooth Jazz"
REM DATE 2005
REM DISCID A50CE80C
REM COMMENT "ExactAudioCopy v1.3"
PERFORMER "Nils"
TITLE "Pacific Coast Highway"
REM COMPOSER "Nils"
FILE "Nils - Pacific Coast Highway.flac" WAVE
  TRACK 01 AUDIO
    TITLE "Pacific Coast Highway"
    PERFORMER "Nils"
    REM COMPOSER "Nils"
    INDEX 01 00:00:00
  TRACK 02 AUDIO
    TITLE "Back Pocket"
    PERFORMER "Nils"
    REM COMPOSER "Nils"
    INDEX 01 04:56:53
  TRACK 03 AUDIO
    TITLE "Georgy Porgy"
    PERFORMER "Nils"
    REM COMPOSER "Nils"
    INDEX 01 09:14:43
  TRACK 04 AUDIO
    TITLE "Coming Home"
    PERFORMER "Nils"
    REM COMPOSER "Nils"
    INDEX 01 14:07:11
  TRACK 05 AUDIO
    TITLE "You've Got A Friend"
    PERFORMER "Nils"
    REM COMPOSER "Nils"
    INDEX 01 18:53:34
  TRACK 06 AUDIO
    TITLE "Cruisin'"
    PERFORMER "Nils"
    REM COMPOSER "Nils"
    INDEX 01 24:06:16
  TRACK 07 AUDIO
    TITLE "Sneakin'"
    PERFORMER "Nils"
    REM COMPOSER "Nils"
    INDEX 01 28:48:33
  TRACK 08 AUDIO
    TITLE "Summer Nights"
    PERFORMER "Nils"
    REM COMPOSER "Nils"
    INDEX 01 33:51:12
  TRACK 09 AUDIO
    TITLE "Hey Ya"
    PERFORMER "Nils"
    REM COMPOSER "Nils"
    INDEX 01 37:50:01
  TRACK 10 AUDIO
    TITLE "Keep Rollin'"
    PERFORMER "Nils"
    REM COMPOSER "Nils"
    INDEX 01 42:43:04
  TRACK 11 AUDIO
    TITLE "Kona Girl"
    PERFORMER "Nils"
    REM COMPOSER "Nils"
    INDEX 01 47:40:45
  TRACK 12 AUDIO
    TITLE "Baja California"
    PERFORMER "Nils"
    REM COMPOSER "Nils"
    INDEX 01 51:10:11
No seeders - write personal message to M0p94ok. Any questions - support@pro-jazz.com.
Нет сидеров - пишите в личку M0p94ok. Есть вопросы - support@pro-jazz.com
11:50
190
Нет комментариев. Ваш будет первым!