Поиск

(Smooth Jazz) Brian Simpson It's All Good - 2005, APE (image + .cue), lossless

Треклист:
Brian Simpson It's All Good
Страна: USA
Жанр: Smooth Jazz
Год выпуска: 2005
Формат: APE (image + .cue)
Битрейт аудио: lossless
Продолжительность: 45:20
Трэклист:
1. It's All Good
2. Here With You
3. Saturday Cool
4. Twilight
5. And The Story Goes
6. Waiting
7. I Remember When
8. It Could Happen
9. Blues for Scott
10. Au Contraire
 
Файлы
Brian Simpson - It's All Good (ape).cue
Brian Simpson - It's All Good.ape
Brian Simpson - It's All Good.cue
Brian Simpson - It's All Good.log
Covers.ncd
Tau.jpg
 
EAC Log
Exact Audio Copy V0.99 prebeta 1 from 25. May 2007
EAC extraction logfile from 21. September 2007, 18:46
Brian Simpson / It's All Good
Used drive : _NEC DVD_RW ND-3550A Adapter: 2 ID: 0
Read mode : Secure
Utilize accurate stream : Yes
Defeat audio cache : Yes
Make use of C2 pointers : No
Read offset correction : 48
Overread into Lead-In and Lead-Out : No
Fill up missing offset samples with silence : Yes
Delete leading and trailing silent blocks : No
Used interface : Installed external ASPI interface
Used output format : Internal WAV Routines
Sample format : 44.100 Hz; 16 Bit; Stereo
TOC of the extracted CD
Track | Start | Length | Start sector | End sector
---------------------------------------------------------
1 | 0:00.00 | 3:32.04 | 0 | 15903
2 | 3:32.04 | 4:17.28 | 15904 | 35206
3 | 7:49.32 | 4:37.63 | 35207 | 56044
4 | 12:27.20 | 4:54.40 | 56045 | 78134
5 | 17:21.60 | 4:28.07 | 78135 | 98241
6 | 21:49.67 | 5:26.16 | 98242 | 122707
7 | 27:16.08 | 3:59.45 | 122708 | 140677
8 | 31:15.53 | 5:03.01 | 140678 | 163403
9 | 36:18.54 | 5:13.61 | 163404 | 186939
10 | 41:32.40 | 3:48.35 | 186940 | 204074
Range status and errors
Selected range
Filename F:\Images\Brian Simpson\Brian Simpson - It's All Good\Brian Simpson - It's All Good.wav
Peak level 98.8 %
Range quality 99.9 %
Test CRC B8E22459
Copy CRC B8E22459
Copy OK
AccurateRip summary
Track 1 not present in database
Track 2 not present in database
Track 3 not present in database
Track 4 not present in database
Track 5 not present in database
Track 6 not present in database
Track 7 not present in database
Track 8 not present in database
Track 9 not present in database
Track 10 not present in database
No errors occurred
End of status report
 
tau
Preview
Один из лучших смусовых пианистов. В этом году выпустил шикарный альбом, но у меня он есть только с битрейтом 320. Если этот понравится,то новый выставлю в мр3.
Скачивание доступно после регистрации!!
Приватный:
Нет (DHT включён)
Размер:
279.62 Мб (293,199,617 байт) » файлов: 6
Участники:
0 раздают, 0 качают (0 участников всего)
Внешние участники:
--- [ Обновить ]
11:51
5
Нет комментариев. Ваш будет первым!