Поиск

(Smooth Jazz) Michael Lington - Everything Must Change - 2002, APE (image + .cue), lossless

(Smooth Jazz) Michael Lington - Everything Must Change - 2002, APE (image + .cue), lossless
Треклист:
Michael Lington - Everything Must Change
Страна: USA
Жанр: Smooth Jazz
Год выпуска: 2002
Формат: APE (image + .cue)
Битрейт аудио: lossless
Продолжительность: 46:26
Трэклист:
1. Off The Hook
2. In The Shade
3. Through The Fire
4. The Moment
5. For You
6. Larger Than Life
7. Still Thinking Of You
8. 3 A.M.
9. Mallorca
10. Everything Must Chang
 
Файлы
Covers.ncd
Michael Lington - Everything Must Change (ape).cue
Michael Lington - Everything Must Change.ape
Michael Lington - Everything Must Change.cue
Michael Lington - Everything Must Change.log
tau.jpg
 
EAC Log
Exact Audio Copy V0.99 prebeta 1 from 25. May 2007
EAC extraction logfile from 17. November 2007, 11:31
Michael Lington / Everything Must Change
Used drive : _NEC DVD_RW ND-3550A Adapter: 2 ID: 0
Read mode : Secure
Utilize accurate stream : Yes
Defeat audio cache : Yes
Make use of C2 pointers : No
Read offset correction : 48
Overread into Lead-In and Lead-Out : No
Fill up missing offset samples with silence : Yes
Delete leading and trailing silent blocks : No
Used interface : Installed external ASPI interface
Used output format : Internal WAV Routines
Sample format : 44.100 Hz; 16 Bit; Stereo
TOC of the extracted CD
Track | Start | Length | Start sector | End sector
---------------------------------------------------------
1 | 0:00.00 | 3:57.02 | 0 | 17776
2 | 3:57.02 | 4:25.73 | 17777 | 37724
3 | 8:23.00 | 4:44.15 | 37725 | 59039
4 | 13:07.15 | 4:02.62 | 59040 | 77251
5 | 17:10.02 | 3:47.73 | 77252 | 94349
6 | 20:58.00 | 3:50.37 | 94350 | 111636
7 | 24:48.37 | 3:57.70 | 111637 | 129481
8 | 28:46.32 | 4:39.13 | 129482 | 150419
9 | 33:25.45 | 3:34.37 | 150420 | 166506
10 | 37:00.07 | 6:51.38 | 166507 | 197369
11 | 46:23.45 | 0:33.40 | 208770 | 211284
Range status and errors
Selected range
Filename F:\Images\Michael Lington\Everithing Must Change\Michael Lington - Everything Must Change.wav
Peak level 99.7 %
Range quality 99.9 %
Test CRC 80A316DE
Copy CRC 80A316DE
Copy OK
AccurateRip summary
Track 1 not present in database
Track 2 not present in database
Track 3 not present in database
Track 4 not present in database
Track 5 not present in database
Track 6 not present in database
Track 7 not present in database
Track 8 not present in database
Track 9 not present in database
Track 10 not ripped completely
Track 11 not ripped completely
No errors occurred
End of status report
 
tau
Preview
Очень талантливый саксофонист, а это пожалуй его лучший альбом. Я только не пойму,он почти на всех обложках босой. Наверное Michael Lington очень беден и не может позволить купить себе хорошую обувь.
Приватный:
Нет (DHT включён)
Размер:
266.58 Мб (279,526,066 байт) » файлов: 6
Участники:
0 раздают, 0 качают (0 участников всего)
Внешние участники:
1 раздают, 0 качают (1 участников всего) [ Обновить ]
Никого нет на раздаче - пишите личное сообщение M0p94ok
No seeders - write personal message to M0p94ok
11:52
21
Нет комментариев. Ваш будет первым!