Поиск

(Smooth Jazz) Chieli Minucci - Night Grooves - 2003, APE (image + .cue), lossless

(Smooth Jazz) Chieli Minucci - Night Grooves - 2003, APE (image + .cue), lossless
Треклист:
Chieli Minucci - Night Grooves
Страна: USA
Жанр: Smooth Jazz
Год выпуска: 2003
Формат: APE (image + .cue)
Битрейт аудио: lossless
Продолжительность: 55:40
Трэклист:
1. Kickin' It Hard
2. Night Grooves
3. Foolin' Around Again
4. New Day
5. You're My Reason
6. Don't Make Me Wait
7. Without You
8. Behind The Veil
9. Mr. Shady Eyes
10. Nasir Di Nuevo
 
Файлы
Back.jpg
Chieli Minucci - Night Grooves(ape).cue
Chieli Minucci - Night Grooves.ape
Chieli Minucci - Night Grooves.cue
Chieli Minucci - Night Grooves.log
Disc.jpg
Front Back.jpg
Front.jpg
tau.JPG
 
EAC Log
Exact Audio Copy V0.99 prebeta 4 from 23. January 2008
Отчёт EAC об извлечении, выполненном 13. февраля 2009, 6:14
Chieli Minucci / Night Grooves
Дисковод: _NEC DVD_RW ND-3550A Adapter: 1 ID: 0
Режим чтения : Достоверность
Использование точного потока : Да
Отключение кэша аудио : Да
Использование указателей C2 : Нет
Коррекция смещения при чтении : 48
Способность читать области Lead-in и Lead-out : Нет
Заполнение пропущенных сэмплов тишиной : Да
Удаление блоков с тишиной в начале и конце : Нет
При вычислениях CRC использовались нулевые сэмплы : Да
Интерфейс : Встроенный Win32-интерфейс для Win NT/2000
Выходной формат : Внутренние WAV-операции
Формат сэмплов : 44.100 Гц; 16 бит; стерео
TOC извлечённого CD
Трек | Старт | Длительность | Начальный сектор | Конечный сектор
---------------------------------------------------------------------
1 | 0:00.00 | 5:21.69 | 0 | 24143
2 | 5:21.69 | 5:23.09 | 24144 | 48377
3 | 10:45.03 | 4:42.06 | 48378 | 69533
4 | 15:27.09 | 4:06.00 | 69534 | 87983
5 | 19:33.09 | 4:44.53 | 87984 | 109336
6 | 24:17.62 | 4:53.27 | 109337 | 131338
7 | 29:11.14 | 7:06.23 | 131339 | 163311
8 | 36:17.37 | 7:30.10 | 163312 | 197071
9 | 43:47.47 | 5:19.04 | 197072 | 221000
10 | 49:06.51 | 6:34.05 | 221001 | 250555
Характеристики диапазона извлечения и сообщения об ошибках
Выбранный диапазон
Имя файла C:\Torrents\Chieli Minucci - Night Grooves\Chieli Minucci - Night Grooves.wav
Пиковый уровень 99.8 %
Качество диапазона 100.0 %
CRC копии 3D3BCCBD
Копирование... OK
Ошибок не произошло
AccurateRip: сводка
Трек 1 точность не определена (достоверность 6) [72523886], AccurateRip вернул [F492665E]
Трек 2 точность не определена (достоверность 6) [DCDC7F1D], AccurateRip вернул [E06E544D]
Трек 3 точность не определена (достоверность 6) [ACA134BD], AccurateRip вернул [BFBCA1B5]
Трек 4 точность не определена (достоверность 6) [CF7131E9], AccurateRip вернул [12936BE1]
Трек 5 точность не определена (достоверность 6) [F78EDDF4], AccurateRip вернул [F45FE59C]
Трек 6 точность не определена (достоверность 6) [F9B7A3FF], AccurateRip вернул [F7E6D2FF]
Трек 7 точность не определена (достоверность 6) [B8D466D1], AccurateRip вернул [20A3D4E9]
Трек 8 точность не определена (достоверность 6) [B4178CE6], AccurateRip вернул [6A77EB7A]
Трек 9 точность не определена (достоверность 6) [597164B0], AccurateRip вернул [0C690E9C]
Трек 10 точность не определена (достоверность 6) [1789EF0A], AccurateRip вернул [06DD98DE]
Ни один трек не прошёл проверки на точность
В вашей базе может быть иной вариант штамповки диска
Конец отчёта
 
tau
Приватный:
Нет (DHT включён)
Размер:
345.07 Мб (361,834,709 байт) » файлов: 9
Участники:
0 раздают, 0 качают (0 участников всего)
Внешние участники:
--- [ Обновить ]
11:48
4
Нет комментариев. Ваш будет первым!