Поиск

(Smooth Soul/Memphis Soul/Pop-Soul) Al Green — The Belle Album (1977) - 1999, FLAC (image+.cue), lossless

(Smooth Soul/Memphis Soul/Pop-Soul) Al Green — The Belle Album (1977) - 1999, FLAC (image+.cue), lossless
Треклист:
Al Green — The Belle Album (1977)
Жанр: Smooth Soul/Memphis Soul/Pop-Soul
Год выпуска диска: 1999
Производитель диска: Англия (Hi)
Аудио кодек: FLAC
Тип рипа: image+.cue
Битрейт аудио: lossless
Продолжительность: 39:42
Трэклист:
01. Belle 04:52
02. Loving You 03:34
03. Feels Like Summer 03:43
04. Georgia Boy 07:03
05. I Feel Good 05:22
06. All n All 03:40
07. Chariots of Fire 03:51
08. Dream 07:33
 
отчёт ЕАС
Exact Audio Copy V0.99 prebeta 4 from 23. January 2008
Отчёт EAC об извлечении, выполненном 6. апреля 2010, 10:42
Al Green / The Belle Album
Дисковод: Optiarc DVD RW AD-7203S Adapter: 1 ID: 1
Режим чтения : Достоверность
Использование точного потока : Да
Отключение кэша аудио : Да
Использование указателей C2 : Нет
Коррекция смещения при чтении : 48
Способность читать области Lead-in и Lead-out : Нет
Заполнение пропущенных сэмплов тишиной : Да
Удаление блоков с тишиной в начале и конце : Нет
При вычислениях CRC использовались нулевые сэмплы : Да
Интерфейс : Встроенный Win32-интерфейс для Win NT/2000
Выходной формат : Пользовательский кодировщик
Выбранный битрейт : 1024 kBit/s
Качество : Высокий
Добавление ID3-тэга : Нет
Утилита сжатия : C:\Program Files\Exact Audio Copy\Flac\flac.exe
Дополнительные параметры : -V -8 -T "artist=%a" -T "title=%t" -T "album=%g" -T "date=%y" -T "tracknumber=%n" -T "genre=%m" %s
TOC извлечённого CD
Трек | Старт | Длительность | Начальный сектор | Конечный сектор
---------------------------------------------------------------------
1 | 0:00.00 | 4:52.60 | 0 | 21959
2 | 4:52.60 | 3:34.45 | 21960 | 38054
3 | 8:27.30 | 3:43.68 | 38055 | 54847
4 | 12:11.23 | 7:03.35 | 54848 | 86607
5 | 19:14.58 | 5:22.02 | 86608 | 110759
6 | 24:36.60 | 3:40.20 | 110760 | 127279
7 | 28:17.05 | 3:51.60 | 127280 | 144664
8 | 32:08.65 | 7:33.25 | 144665 | 178664
Характеристики диапазона извлечения и сообщения об ошибках
Выбранный диапазон
Имя файла D:\EAC-FOLDER\Al Green - The Belle Album\Al Green - The Belle Album\Al Green - The Belle Album.wav
Пиковый уровень 93.7 %
Качество диапазона 100.0 %
CRC теста F4C05CE7
CRC копии F4C05CE7
Копирование... OK
Ошибок не произошло
AccurateRip: сводка
Трек 1 точность не определена (достоверность 1) [CDFE38DB], AccurateRip вернул [490BF832]
Трек 2 точность не определена (достоверность 1) [E21B4E50], AccurateRip вернул [8870C85E]
Трек 3 точность не определена (достоверность 1) [999D5B65], AccurateRip вернул [A2B079B3]
Трек 4 точность не определена (достоверность 1) [8806F6CB], AccurateRip вернул [D8039976]
Трек 5 точность не определена (достоверность 1) [5804289F], AccurateRip вернул [31E8083F]
Трек 6 точность не определена (достоверность 1) [F02943DE], AccurateRip вернул [F9D09ECE]
Трек 7 точность не определена (достоверность 1) [AF65C36E], AccurateRip вернул [9780527E]
Трек 8 точность не определена (достоверность 1) [E79A74B8], AccurateRip вернул [F1104B6E]
Ни один трек не прошёл проверки на точность
В вашей базе может быть иной вариант штамповки диска
Конец отчёта
Доп. информация:

Рип свой
см. также:
Al Green — Green Is Blues (1970)
Al Green — Tokyo...Live! (1981)
Приватный:
Да (DHT отключён)
Размер:
205.07 Мб (215,031,427 байт) » файлов: 10
Участники:
0 раздают, 0 качают (0 участников всего)
Внешние участники:
1 раздают, 0 качают (1 участников всего) [ Обновить ]
Никого нет на раздаче - пишите личное сообщение M0p94ok
No seeders - write personal message to M0p94ok
03:59
21
Нет комментариев. Ваш будет первым!