Поиск

(Smooth Soul/Memphis Soul) Al Green — Tokyo...Live! (1981) - 1999, FLAC (tracks), lossless

(Smooth Soul/Memphis Soul) Al Green — Tokyo...Live! (1981) - 1999, FLAC (tracks), lossless
Треклист:
Al Green — Tokyo...Live! (1981)
Жанр: Smooth Soul/Memphis Soul
Год выпуска диска: 1999
Производитель диска: Англия (Hi)
Аудио кодек: FLAC
Тип рипа: tracks
Битрейт аудио: lossless
Продолжительность: 75:38
Трэклист:
01. L-O-V-E (Love) 04:07
02. Tired Of Being Alone 05:19
03. Let's Stay Together 03:49
04. How Can You Mend A Broken Heart? 02:57
05. Loving You 02:36
06. Belle 06:28
07. Sha-La-La (Make Me Happy) 05:00
08. Let's Get Married 08:04
09. God Blessed Our Love 05:47
10. You Ought To Be With Me 06:10
11. For The Good Times 05:33
12. Dream / All 'N All 03:51
13. I Feel Good 09:29
14. Love And Happiness 06:23
 
отчёт ЕАС
Exact Audio Copy V0.99 prebeta 4 from 23. January 2008
Отчёт EAC об извлечении, выполненном 27. марта 2010, 22:31
Al Green / Tokyo...Live!
Дисковод: Optiarc DVD RW AD-7203S Adapter: 1 ID: 1
Режим чтения : Достоверность
Использование точного потока : Да
Отключение кэша аудио : Да
Использование указателей C2 : Нет
Коррекция смещения при чтении : 48
Способность читать области Lead-in и Lead-out : Нет
Заполнение пропущенных сэмплов тишиной : Да
Удаление блоков с тишиной в начале и конце : Нет
При вычислениях CRC использовались нулевые сэмплы : Да
Интерфейс : Встроенный Win32-интерфейс для Win NT/2000
Выходной формат : Пользовательский кодировщик
Выбранный битрейт : 1024 kBit/s
Качество : Высокий
Добавление ID3-тэга : Нет
Утилита сжатия : C:\Program Files\Exact Audio Copy\Flac\flac.exe
Дополнительные параметры : -V -8 -T "artist=%a" -T "title=%t" -T "album=%g" -T "date=%y" -T "tracknumber=%n" -T "genre=%m" %s
TOC извлечённого CD
Трек | Старт | Длительность | Начальный сектор | Конечный сектор
---------------------------------------------------------------------
1 | 0:00.00 | 4:07.06 | 0 | 18530
2 | 4:07.06 | 5:19.00 | 18531 | 42455
3 | 9:26.06 | 3:49.31 | 42456 | 59661
4 | 13:15.37 | 2:57.04 | 59662 | 72940
5 | 16:12.41 | 2:36.67 | 72941 | 84707
6 | 18:49.33 | 6:28.34 | 84708 | 113841
7 | 25:17.67 | 5:00.18 | 113842 | 136359
8 | 30:18.10 | 8:04.06 | 136360 | 172665
9 | 38:22.16 | 5:47.52 | 172666 | 198742
10 | 44:09.68 | 6:10.45 | 198743 | 226537
11 | 50:20.38 | 5:33.56 | 226538 | 251568
12 | 55:54.19 | 3:51.19 | 251569 | 268912
13 | 59:45.38 | 9:29.50 | 268913 | 311637
14 | 69:15.13 | 6:23.01 | 311638 | 340363
Характеристики диапазона извлечения и сообщения об ошибках
Выбранный диапазон
Имя файла D:\EAC-FOLDER\Al Green - Tokyo...Live!\Al Green - Tokyo...Live!\Al Green - Tokyo...Live!.wav
Пиковый уровень 99.2 %
Качество диапазона 99.9 %
CRC теста 9E5C12CD
CRC копии 9E5C12CD
Копирование... OK
Ошибок не произошло
AccurateRip: сводка
Трек 1 нет в базе данных
Трек 2 нет в базе данных
Трек 3 нет в базе данных
Трек 4 нет в базе данных
Трек 5 нет в базе данных
Трек 6 нет в базе данных
Трек 7 нет в базе данных
Трек 8 нет в базе данных
Трек 9 нет в базе данных
Трек 10 нет в базе данных
Трек 11 нет в базе данных
Трек 12 нет в базе данных
Трек 13 нет в базе данных
Трек 14 нет в базе данных
Ни одного трека нет в базе AccurateRip
Конец отчёта
Доп. информация:

Фрагменты выступления преподобного в столице Японии 23 и 24 июня 1978 года. Классические песенки живьём.
Энджой.
PS Рип свой.
см. также:
Al Green — Green Is Blues (1970)
Al Green — The Belle Album (1977)
Приватный:
Да (DHT отключён)
Размер:
480.65 Мб (504,000,856 байт) » файлов: 10
Участники:
0 раздают, 0 качают (0 участников всего)
Внешние участники:
3 раздают, 1 качают (4 участников всего) [ Обновить ]
Никого нет на раздаче - пишите личное сообщение M0p94ok
No seeders - write personal message to M0p94ok
03:59
21
Нет комментариев. Ваш будет первым!