Поиск

(funk) The Temptations - The Psychedelic Shack / All Directions - 1970 / 1972 (1986) - 1986, FLAC (tracks+.cue), lossless

Треклист:
The Temptations - The Psychedelic Shack / All Directions - 1970 / 1972 (1986)
Жанр: funk
Год выпуска диска: 1986
Производитель диска: Motown Record Corporation (Germany)
Аудио кодек: FLAC
Тип рипа: tracks+.cue
Битрейт аудио: lossless
Продолжительность: 01:11:33
Трэклист:
01. Psychedelic Shack (3:53)
02. You Make Your Own Heaven And Hell Right Here On Earth (2:47)
03. Hum Along And Dance (3:53)
04. Take A Stroll Through Your Mind (8:38)
05. It's Summer (2:36)
06. War (3:11)
07. You Need Love Like I Do (Don't You) (3:58)
08. Friendship Train (7:49)
09. Funky Music Sho Nuff Turns Me On (3:07)
10. Run Charlie Run (3:02)
11. Papa Was A Rollin' Stone (11:46)
12. Love Woke Me Up This Morning (2:23)
13. I Ain't Got Nothin' (3:34)
14. The First Time Ever (I Saw Your Face) (4:12)
15. Mother Nature (3:10)
16. Do Your Thing (3:33)
 
Лог EAC
Exact Audio Copy V0.99 prebeta 5 from 4. May 2009
Отчёт EAC об извлечении, выполненном 4. апреля 2010, 14:36
The Temptations / Psychedelic Shack & All Directions
Дисковод: SONY DVD RW DRX-S70U Adapter: 2 ID: 0
Режим чтения : Достоверность
Использование точного потока : Да
Отключение кэша аудио : Да
Использование указателей C2 : Нет
Коррекция смещения при чтении : 48
Способность читать области Lead-in и Lead-out : Нет
Заполнение пропущенных сэмплов тишиной : Да
Удаление блоков с тишиной в начале и конце : Нет
При вычислениях CRC использовались нулевые сэмплы : Да
Интерфейс : Встроенный Win32-интерфейс для Win NT/2000
Обработка зазоров : Добавлено к предыдущему треку
Выходной формат : Пользовательский кодировщик
Выбранный битрейт : 768 kBit/s
Качество : Высокий
Добавление ID3-тэга : Нет
Утилита сжатия : C:\Program Files\Exact Audio Copy\FLAC\FLAC.EXE
Дополнительные параметры : -6 -V -T "ARTIST=%a" -T "TITLE=%t" -T "ALBUM=%g" -T "DATE=%y" -T "TRACKNUMBER=%n" -T "GENRE=%m" -T "COMMENT=%e" %s -o %d
TOC извлечённого CD
Трек | Старт | Длительность | Начальный сектор | Конечный сектор
---------------------------------------------------------------------
1 | 0:00.00 | 3:53.08 | 0 | 17482
2 | 3:53.08 | 2:46.52 | 17483 | 29984
3 | 6:39.60 | 3:53.35 | 29985 | 47494
4 | 10:33.20 | 8:37.58 | 47495 | 86327
5 | 19:11.03 | 2:36.00 | 86328 | 98027
6 | 21:47.03 | 3:11.35 | 98028 | 112387
7 | 24:58.38 | 3:58.20 | 112388 | 130257
8 | 28:56.58 | 7:49.22 | 130258 | 165454
9 | 36:46.05 | 3:06.53 | 165455 | 179457
10 | 39:52.58 | 3:01.70 | 179458 | 193102
11 | 42:54.53 | 11:46.00 | 193103 | 246052
12 | 54:40.53 | 2:23.22 | 246053 | 256799
13 | 57:04.00 | 3:33.68 | 256800 | 272842
14 | 60:37.68 | 4:11.55 | 272843 | 291722
15 | 64:49.48 | 3:10.17 | 291723 | 305989
16 | 67:59.65 | 3:32.50 | 305990 | 321939
Трек 1
Имя файла d:\My Documents\The Temptations 2LP in 1CD\01.The Temptations-Psychedelic Shack.wav
Длина предзазора 0:00:02.00
Пиковый уровень 98.4 %
Качество трека 99.9 %
CRC теста 653DFF4F
CRC копии 653DFF4F
Точное извлечение (достоверность 7) [23622354]
Копирование... OK
Трек 2
Имя файла d:\My Documents\The Temptations 2LP in 1CD\02.The Temptations-You Make Your Own Heaven And Hell Right Here On Earth.wav
Пиковый уровень 66.6 %
Качество трека 99.9 %
CRC теста 806815ED
CRC копии 806815ED
Точное извлечение (достоверность 7) [65308FD5]
Копирование... OK
Трек 3
Имя файла d:\My Documents\The Temptations 2LP in 1CD\03.The Temptations-Hum Along And Dance.wav
Пиковый уровень 68.7 %
Качество трека 100.0 %
CRC теста 056D27BF
CRC копии 056D27BF
Точное извлечение (достоверность 7) [FAB74A42]
Копирование... OK
Трек 4
Имя файла d:\My Documents\The Temptations 2LP in 1CD\04.The Temptations-Take A Stroll Through Your Mind.wav
Пиковый уровень 82.5 %
Качество трека 100.0 %
CRC теста 0F68E950
CRC копии 0F68E950
Точное извлечение (достоверность 7) [E4BF4862]
Копирование... OK
Трек 5
Имя файла d:\My Documents\The Temptations 2LP in 1CD\05.The Temptations-It's Summer.wav
Длина предзазора 0:00:02.33
Пиковый уровень 69.3 %
Качество трека 100.0 %
CRC теста 5CF54118
CRC копии 5CF54118
Точное извлечение (достоверность 7) [6F454672]
Копирование... OK
Трек 6
Имя файла d:\My Documents\The Temptations 2LP in 1CD\06.The Temptations-War.wav
Пиковый уровень 85.9 %
Качество трека 100.0 %
CRC теста 09B180B7
CRC копии 09B180B7
Точное извлечение (достоверность 7) [E7DFBF15]
Копирование... OK
Трек 7
Имя файла d:\My Documents\The Temptations 2LP in 1CD\07.The Temptations-You Need Love Like I Do (Don't You).wav
Пиковый уровень 66.4 %
Качество трека 100.0 %
CRC теста F20A28B9
CRC копии F20A28B9
Точное извлечение (достоверность 7) [E80A9178]
Копирование... OK
Трек 8
Имя файла d:\My Documents\The Temptations 2LP in 1CD\08.The Temptations-Friendship Train.wav
Длина предзазора 0:00:01.33
Пиковый уровень 61.0 %
Качество трека 100.0 %
CRC теста 107E19B9
CRC копии 107E19B9
Точное извлечение (достоверность 7) [09E25614]
Копирование... OK
Трек 9
Имя файла d:\My Documents\The Temptations 2LP in 1CD\09.The Temptations-Funky Music Sho Nuff Turns Me On.wav
Длина предзазора 0:00:01.33
Пиковый уровень 84.4 %
Качество трека 100.0 %
CRC теста 6CEC0183
CRC копии 6CEC0183
Точное извлечение (достоверность 7) [939F37D5]
Копирование... OK
Трек 10
Имя файла d:\My Documents\The Temptations 2LP in 1CD\10.The Temptations-Run Charlie Run.wav
Длина предзазора 0:00:00.66
Пиковый уровень 77.9 %
Качество трека 99.9 %
CRC теста 325A95E7
CRC копии 325A95E7
Точное извлечение (достоверность 7) [B75709DF]
Копирование... OK
Трек 11
Имя файла d:\My Documents\The Temptations 2LP in 1CD\11.The Temptations-Papa Was A Rollin' Stone.wav
Длина предзазора 0:00:00.86
Пиковый уровень 96.7 %
Качество трека 100.0 %
CRC теста 8CF696E1
CRC копии 8CF696E1
Точное извлечение (достоверность 7) [17C49244]
Копирование... OK
Трек 12
Имя файла d:\My Documents\The Temptations 2LP in 1CD\12.The Temptations-Love Woke Me Up This Morning.wav
Длина предзазора 0:00:01.00
Пиковый уровень 81.1 %
Качество трека 100.0 %
CRC теста 7CE84447
CRC копии 7CE84447
Точное извлечение (достоверность 7) [419A29C5]
Копирование... OK
Трек 13
Имя файла d:\My Documents\The Temptations 2LP in 1CD\13.The Temptations-I Ain't Got Nothin'.wav
Длина предзазора 0:00:01.00
Пиковый уровень 66.8 %
Качество трека 100.0 %
CRC теста 211AE256
CRC копии 211AE256
Точное извлечение (достоверность 7) [73567E38]
Копирование... OK
Трек 14
Имя файла d:\My Documents\The Temptations 2LP in 1CD\14.The Temptations-The First Time Ever (I Saw Your Face).wav
Длина предзазора 0:00:00.66
Пиковый уровень 77.1 %
Качество трека 100.0 %
CRC теста 07973B29
CRC копии 07973B29
Точное извлечение (достоверность 7) [EBF2F6E8]
Копирование... OK
Трек 15
Имя файла d:\My Documents\The Temptations 2LP in 1CD\15.The Temptations-Mother Nature.wav
Пиковый уровень 89.0 %
Качество трека 100.0 %
CRC теста 315FFC98
CRC копии 315FFC98
Точное извлечение (достоверность 7) [7CB29AD4]
Копирование... OK
Трек 16
Имя файла d:\My Documents\The Temptations 2LP in 1CD\16.The Temptations-Do Your Thing.wav
Длина предзазора 0:00:01.49
Пиковый уровень 94.4 %
Качество трека 100.0 %
CRC теста 24BD6F90
CRC копии 24BD6F90
Точное извлечение (достоверность 7) [075CF3E0]
Копирование... OK
Все треки извлечены точно
Ошибок не произошло
Конец отчёта
 
Лог Audiochecker
AUDIOCHECKER v2.0 beta (build 457) - by Dester - opdester@freemail.hu
~~~~~~~~~~~~~~~~~~~~~~~~~~~~~~~~~~
-=== DO NOT EDIT THIS FILE! ===-
Путь: ...\The Temptations 2LP in 1CD
01 -=- 01.The Temptations-Psychedelic Shack.flac -=- CDDA (100%)
02 -=- 02.The Temptations-You Make Your Own Heaven And Hell Right Here On Earth.flac -=- CDDA (100%)
03 -=- 03.The Temptations-Hum Along And Dance.flac -=- CDDA (100%)
04 -=- 04.The Temptations-Take A Stroll Through Your Mind.flac -=- CDDA (100%)
05 -=- 05.The Temptations-It's Summer.flac -=- CDDA (100%)
06 -=- 06.The Temptations-War.flac -=- CDDA (100%)
07 -=- 07.The Temptations-You Need Love Like I Do (Don't You).flac -=- MPEG (95%)
08 -=- 08.The Temptations-Friendship Train.flac -=- CDDA (100%)
09 -=- 09.The Temptations-Funky Music Sho Nuff Turns Me On.flac -=- CDDA (100%)
10 -=- 10.The Temptations-Run Charlie Run.flac -=- CDDA (100%)
11 -=- 11.The Temptations-Papa Was A Rollin' Stone.flac -=- MPEG (95%)
12 -=- 12.The Temptations-Love Woke Me Up This Morning.flac -=- CDDA (100%)
13 -=- 13.The Temptations-I Ain't Got Nothin'.flac -=- CDDA (100%)
14 -=- 14.The Temptations-The First Time Ever (I Saw Your Face).flac -=- CDDA (100%)
15 -=- 15.The Temptations-Mother Nature.flac -=- CDDA (100%)
16 -=- 16.The Temptations-Do Your Thing.flac -=- CDDA (100%)
Сводка 88,13% CDDA
18567796
 
*CUE
REM GENRE R&B
REM DATE 1986
REM DISCID D610C410
REM COMMENT "ExactAudioCopy v0.99pb5"
PERFORMER "The Temptations"
TITLE "Psychedelic Shack & All Directions"
FILE "01.The Temptations-Psychedelic Shack.wav" WAVE
TRACK 01 AUDIO
TITLE "Psychedelic Shack"
PERFORMER "The Temptations"
INDEX 01 00:00:00
FILE "02.The Temptations-You Make Your Own Heaven And Hell Right Here On Earth.wav" WAVE
TRACK 02 AUDIO
TITLE "You Make Your Own Heaven And Hell Right Here On Earth"
PERFORMER "The Temptations"
INDEX 01 00:00:00
FILE "03.The Temptations-Hum Along And Dance.wav" WAVE
TRACK 03 AUDIO
TITLE "Hum Along And Dance"
PERFORMER "The Temptations"
INDEX 01 00:00:00
FILE "04.The Temptations-Take A Stroll Through Your Mind.wav" WAVE
TRACK 04 AUDIO
TITLE "Take A Stroll Through Your Mind"
PERFORMER "The Temptations"
INDEX 01 00:00:00
TRACK 05 AUDIO
TITLE "It's Summer"
PERFORMER "The Temptations"
INDEX 00 08:35:33
FILE "05.The Temptations-It's Summer.wav" WAVE
INDEX 01 00:00:00
FILE "06.The Temptations-War.wav" WAVE
TRACK 06 AUDIO
TITLE "War"
PERFORMER "The Temptations"
INDEX 01 00:00:00
FILE "07.The Temptations-You Need Love Like I Do (Don't You).wav" WAVE
TRACK 07 AUDIO
TITLE "You Need Love Like I Do (Don't You)"
PERFORMER "The Temptations"
INDEX 01 00:00:00
TRACK 08 AUDIO
TITLE "Friendship Train"
PERFORMER "The Temptations"
INDEX 00 03:56:70
FILE "08.The Temptations-Friendship Train.wav" WAVE
INDEX 01 00:00:00
TRACK 09 AUDIO
TITLE "Funky Music Sho Nuff Turns Me On"
PERFORMER "The Temptations"
INDEX 00 07:47:72
FILE "09.The Temptations-Funky Music Sho Nuff Turns Me On.wav" WAVE
INDEX 01 00:00:00
TRACK 10 AUDIO
TITLE "Run Charlie Run"
PERFORMER "The Temptations"
INDEX 00 03:06:03
FILE "10.The Temptations-Run Charlie Run.wav" WAVE
INDEX 01 00:00:00
TRACK 11 AUDIO
TITLE "Papa Was A Rollin' Stone"
PERFORMER "The Temptations"
INDEX 00 03:01:05
FILE "11.The Temptations-Papa Was A Rollin' Stone.wav" WAVE
INDEX 01 00:00:00
TRACK 12 AUDIO
TITLE "Love Woke Me Up This Morning"
PERFORMER "The Temptations"
INDEX 00 11:45:00
FILE "12.The Temptations-Love Woke Me Up This Morning.wav" WAVE
INDEX 01 00:00:00
TRACK 13 AUDIO
TITLE "I Ain't Got Nothin'"
PERFORMER "The Temptations"
INDEX 00 02:22:22
FILE "13.The Temptations-I Ain't Got Nothin'.wav" WAVE
INDEX 01 00:00:00
TRACK 14 AUDIO
TITLE "The First Time Ever (I Saw Your Face)"
PERFORMER "The Temptations"
INDEX 00 03:33:18
FILE "14.The Temptations-The First Time Ever (I Saw Your Face).wav" WAVE
INDEX 01 00:00:00
FILE "15.The Temptations-Mother Nature.wav" WAVE
TRACK 15 AUDIO
TITLE "Mother Nature"
PERFORMER "The Temptations"
INDEX 01 00:00:00
TRACK 16 AUDIO
TITLE "Do Your Thing"
PERFORMER "The Temptations"
INDEX 00 03:08:55
FILE "16.The Temptations-Do Your Thing.wav" WAVE
INDEX 01 00:00:00
P.S. рип сделан с оригинального cd из моей коллекции по просьбе singun .
Приватный:
Нет (DHT включён)
Размер:
408.54 Мб (428,383,313 байт) » файлов: 20
Участники:
0 раздают, 0 качают (0 участников всего)
Внешние участники:
11 раздают, 4 качают (15 участников всего) [ Обновить ]
Никого нет на раздаче - пишите личное сообщение M0p94ok
No seeders - write personal message to M0p94ok
03:58
24
Нет комментариев. Ваш будет первым!