Поиск

(Jazz, Organ Jazz, Jazz-Funk) Johnny Hammond – Higher Ground - 1974, FLAC (image+.cue), lossless

Треклист:
Johnny Hammond Smith
Higher Ground
Жанр: Jazz, Organ Jazz, Jazz-Funk
Год выпуска диска: 1974
Производитель диска: US
Аудио кодек: FLAC
Тип рипа: image+.cue
Битрейт аудио: lossless
Продолжительность: 36:01
Трэклист:
01. Catch My Soul
02. Summertime/The Ghetto
03. Higher Ground
04. Big Sur Suite
Состав:
Johnny Hammond Smith - Organ
Bob James - Electric Piano, Yamaha Organ, Mellotron
Ron Carter - Bass
Steve Gadd - Drums
Jack DeJohnette - Drums (On Big Sur Suite)
George Benson - Guitar
Hank Crawford - Alto Saxophone (On big Sur Suite)
Joe Henderson - Tenor Saxophone
Phil Kraus, Ralph McDonald – Percussion
Источник:
AvaxHome
 
EAC
Exact Audio Copy V0.99 prebeta 5 from 4. May 2009
EAC extraction logfile from 31. August 2009, 17:27
Johnny Hammond / Higher Ground
Used drive : _NEC DVD_RW ND-3520A Adapter: 1 ID: 1
Read mode : Secure
Utilize accurate stream : Yes
Defeat audio cache : Yes
Make use of C2 pointers : No
Read offset correction : 48
Overread into Lead-In and Lead-Out : No
Fill up missing offset samples with silence : Yes
Delete leading and trailing silent blocks : No
Null samples used in CRC calculations : No
Used interface : Native Win32 interface for Win NT & 2000
Used output format : Internal WAV Routines
Sample format : 44.100 Hz; 16 Bit; Stereo
TOC of the extracted CD
Track | Start | Length | Start sector | End sector
---------------------------------------------------------
1 | 0:00.00 | 7:22.32 | 0 | 33181
2 | 7:22.32 | 10:04.08 | 33182 | 78489
3 | 17:26.40 | 10:33.72 | 78490 | 126036
4 | 28:00.37 | 9:05.65 | 126037 | 166976
Range status and errors
Selected range
Filename G:\AVAXHOME\Johnny Hammond - Higher Ground (1974)\Johnny Hammond - Higher Ground.wav
Peak level 100.0 %
 
спектр
Приватный:
Нет (DHT включён)
Размер:
213.21 Мб (223,563,510 байт) » файлов: 12
Участники:
0 раздают, 0 качают (0 участников всего)
Внешние участники:
3 раздают, 1 качают (4 участников всего) [ Обновить ]
Никого нет на раздаче - пишите личное сообщение M0p94ok
No seeders - write personal message to M0p94ok
04:00
17
Нет комментариев. Ваш будет первым!