Поиск

(Smooth, Pop-Jazz) Earl Klugh - Earl Klugh {1976} - 2005, FLAC (tracks+.cue), lossless

(Smooth, Pop-Jazz) Earl Klugh - Earl Klugh {1976} - 2005, FLAC (tracks+.cue), lossless
Треклист:
•Earl Klugh - Earl Klugh {1976}•
Жанр: Smooth, Pop-Jazz
Страна-производитель диска: USA
Год издания диска: 2005
Издатель (лейбл): Blue Note
Номер по каталогу: 477543
Аудиокодек: FLAC (*.flac)
Тип рипа: tracks+.cue
Битрейт аудио: lossless
Продолжительность: 00:51:02
Источник (релизер): tiburon
Наличие сканов в содержимом раздачи: да
Треклист:
01. Las Manos De Duego
02. Could It Be I'm Falling In Love
03. Angelina
04. Slippin' In The Back Door
05. Vonetta
06. Laughter In The Rain
07. Waltz For Debby
08. Wind And The Sea
09. Cabo Frio (Live)
10. The Shadow Of Your Smile (Live)
11. Angelina (Live)
 
Лог создания рипа
EAC extraction logfile from 23. January 2008, 17:28 for CD
Earl Klugh / Earl Klugh
Used drive : PLEXTOR CD-R PREMIUM2 Adapter: 1 ID: 1
Read mode : Secure with NO C2, accurate stream, disable cache
Read offset correction : 30
Overread into Lead-In and Lead-Out : No
Used output format : C:\Programmi\FLAC\flac.exe (User Defined Encoder)
32 kBit/s
Additional command line options : -8 -V -T "ARTIST=%a" -T "TITLE=%t" -T "ALBUM=%g" -T "DATE=%y" -T "TRACKNUMBER=%n" -T "GENRE=%m" -T "COMMENT=EAC FLAC -8" %s
Other options :
Fill up missing offset samples with silence : Yes
Delete leading and trailing silent blocks : No
Installed external ASPI interface
Track 1
Filename C:\My Rip\01 - Las Manos De Fuego.wav
Pre-gap length 0:00:02.00
Peak level 96.6 %
Track quality 100.0 %
Test CRC C751F757
Copy CRC C751F757
Copy OK
Track 2
Filename C:\My Rip\02 - Could It Be I'm Falling In Love.wav
Pre-gap length 0:00:01.92
Peak level 96.6 %
Track quality 100.0 %
Test CRC 48D9F42D
Copy CRC 48D9F42D
Copy OK
Track 3
Filename C:\My Rip\03 - Angelina.wav
Pre-gap length 0:00:01.09
Peak level 98.8 %
Track quality 100.0 %
Test CRC C6A861D7
Copy CRC C6A861D7
Copy OK
Track 4
Filename C:\My Rip\04 - Slippin' In The Back Door.wav
Pre-gap length 0:00:01.52
Peak level 98.8 %
Track quality 100.0 %
Test CRC 22F90290
Copy CRC 22F90290
Copy OK
Track 5
Filename C:\My Rip\05 - Vonetta.wav
Pre-gap length 0:00:00.57
Peak level 98.8 %
Track quality 100.0 %
Test CRC D7796003
Copy CRC D7796003
Copy OK
Track 6
Filename C:\My Rip\06 - Laughter In The Rain.wav
Pre-gap length 0:00:02.05
Peak level 98.8 %
Track quality 100.0 %
Test CRC B3C44F96
Copy CRC B3C44F96
Copy OK
Track 7
Filename C:\My Rip\07 - Waltz For Debby.wav
Pre-gap length 0:00:01.64
Peak level 98.1 %
Track quality 100.0 %
Test CRC 579A6D74
Copy CRC 579A6D74
Copy OK
Track 8
Filename C:\My Rip\08 - Wind And The Sea.wav
Pre-gap length 0:00:01.06
Peak level 98.8 %
Track quality 100.0 %
Test CRC 2C456F94
Copy CRC 2C456F94
Copy OK
Track 9
Filename C:\My Rip\09 - Cabo Frio (Live).wav
Pre-gap length 0:00:02.22
Peak level 98.8 %
Track quality 99.9 %
Test CRC BFE8CED0
Copy CRC BFE8CED0
Copy OK
Track 10
Filename C:\My Rip\10 - The Shadow Of Your Smile (Live).wav
Peak level 98.8 %
Track quality 100.0 %
Test CRC A03810AA
Copy CRC A03810AA
Copy OK
Track 11
Filename C:\My Rip\11 - Angelina (Live).wav
Peak level 98.8 %
Track quality 100.0 %
Test CRC AE0C1714
Copy CRC AE0C1714
Copy OK
No errors occured
End of status report
 
Содержание индексной карты (.CUE)
REM GENRE Fusion
REM DATE 1976
REM DISCID A211560C
REM COMMENT "ExactAudioCopy v0.95b3"
PERFORMER "Earl Klugh"
TITLE "Earl Klugh"
FILE "01 - Las Manos De Fuego.flac" WAVE
TRACK 01 AUDIO
TITLE "Las Manos De Fuego"
PERFORMER "Earl Klugh"
INDEX 01 00:00:00
TRACK 02 AUDIO
TITLE "Could It Be I'm Falling In Love"
PERFORMER "Earl Klugh"
INDEX 00 05:31:41
FILE "02 - Could It Be I'm Falling In Love.flac" WAVE
INDEX 01 00:00:00
TRACK 03 AUDIO
TITLE "Angelina"
PERFORMER "Earl Klugh"
INDEX 00 04:00:32
FILE "03 - Angelina.flac" WAVE
INDEX 01 00:00:00
TRACK 04 AUDIO
TITLE "Slippin' In The Back Door"
PERFORMER "Earl Klugh"
INDEX 00 04:49:30
FILE "04 - Slippin' In The Back Door.flac" WAVE
INDEX 01 00:00:00
TRACK 05 AUDIO
TITLE "Vonetta"
PERFORMER "Earl Klugh"
INDEX 00 04:15:03
FILE "05 - Vonetta.flac" WAVE
INDEX 01 00:00:00
TRACK 06 AUDIO
TITLE "Laughter In The Rain"
PERFORMER "Earl Klugh"
INDEX 00 06:04:48
FILE "06 - Laughter In The Rain.flac" WAVE
INDEX 01 00:00:00
TRACK 07 AUDIO
TITLE "Waltz For Debby"
PERFORMER "Earl Klugh"
INDEX 00 04:31:34
FILE "07 - Waltz For Debby.flac" WAVE
INDEX 01 00:00:00
TRACK 08 AUDIO
TITLE "Wind And The Sea"
PERFORMER "Earl Klugh"
INDEX 00 04:57:41
FILE "08 - Wind And The Sea.flac" WAVE
INDEX 01 00:00:00
TRACK 09 AUDIO
TITLE "Cabo Frio (Live)"
PERFORMER "Earl Klugh"
INDEX 00 04:46:33
FILE "09 - Cabo Frio (Live).flac" WAVE
INDEX 01 00:00:00
FILE "10 - The Shadow Of Your Smile (Live).flac" WAVE
TRACK 10 AUDIO
TITLE "The Shadow Of Your Smile (Live)"
PERFORMER "Earl Klugh"
INDEX 01 00:00:00
FILE "11 - Angelina (Live).flac" WAVE
TRACK 11 AUDIO
TITLE "Angelina (Live)"
PERFORMER "Earl Klugh"
INDEX 01 00:00:00
 
Состав
Earl Klugh - acoustic and electric guitars
Dave Grusin - Fender Rhodes,acoustic piano,synthesizer
Lee Ritenour - electric guitar
Charles Meeks - bass
Louis Johnson - bass
Harvey Mason - drums and percussion
Laudir Deoliverira - additional percussion
Ray Pizzi - soprano sax
Pete Christlieb - tenor sax and flute
Jerome Richardson - baritone sax and flute
Chuck Findley - trumpet and flugelhorn
Oscar Brashear - trumpet and flugelhorn
Garnett Brown - trombone
Strings - Bernard Kundel,Marcia Van Dyke,Ralph Schaeffer,Joseph Stepansky,Karen Jones,Alexander Murray,Thelma Beach,Kenneth Yerke,Edgar Lustgarten,Pamela Goldsmith,Myer Bello,Marie Fera,Charles Veal,Jr.,Daniel Shindatyov
Приватный:
Нет (DHT включён)
Размер:
309.07 Мб (324,079,725 байт) » файлов: 24
Участники:
0 раздают, 1 качают (1 участников всего)
Внешние участники:
5 раздают, 2 качают (7 участников всего) [ Обновить ]
Скорость:
265.51 Кб/c 0/c
For power users only: no seeders - write to support@pro-jazz.com. Для power user: нет сидеров - пишите на support@pro-jazz.com.
02:34
156
Нет комментариев. Ваш будет первым!