Поиск

(Smooth, Pop-Jazz) Earl Klugh - Low Ride - 1983, FLAC (tracks+.cue), lossless

(Smooth, Pop-Jazz) Earl Klugh - Low Ride - 1983, FLAC (tracks+.cue), lossless
Треклист:
•Earl Klugh - Low Ride•
Жанр: Smooth, Pop-Jazz
Страна-производитель диска: West Germany
Год издания диска: 1983
Издатель (лейбл): Capitol
Номер по каталогу: CDP 746 007-2
Аудиокодек: FLAC (*.flac)
Тип рипа: tracks+.cue
Битрейт аудио: lossless
Продолжительность: 00:36:14
Источник (релизер): tiburon
Наличие сканов в содержимом раздачи: да
Треклист:
01.Back In Central park 3:38
02.(If You Want To) Be My Love 5:14
03.Low Ride 5:30
04.Just Like Yesterday 4:17
05.If You're Still In Love With Me 2:37
06.I Never Thought I's Leave You 3:45
07.Christina 4:08
08.Night Drive 6:43
 
Лог создания рипа
EAC extraction logfile from 19. August 2007, 15:59 for CD
Earl Klugh / Low Ride
Used drive : PLEXTOR DVDR PX-716A Adapter: 2 ID: 0
Read mode : Secure with NO C2, accurate stream, disable cache
Read offset correction : 30
Overread into Lead-In and Lead-Out : No
Used output format : C:\Programmi\Exact Audio Copy\flac-1.1.2-win\bin\flac.exe (User Defined Encoder)
32 kBit/s
Additional command line options : -8 -V -T "artist=%a" -T "title=%t" -T "album=%g" -T "date=%y" -T "tracknumber=%n" -T "genre=%m" -T "comment=Exact Audio Copy 0.95 b3 Secure Mode / FLAC q8 v. 1.1.2" %s
Other options :
Fill up missing offset samples with silence : Yes
Delete leading and trailing silent blocks : No
Installed external ASPI interface
Track 1
Filename F:\[MyRip]\01 - Back In Central Park.wav
Pre-gap length 0:00:02.33
Peak level 95.7 %
Track quality 100.0 %
Test CRC E58E5E4A
Copy CRC E58E5E4A
Copy OK
Track 2
Filename F:\[MyRip]\02 - (If You Want To) Be My Love.wav
Pre-gap length 0:00:01.00
Peak level 100.0 %
Track quality 99.9 %
Test CRC EEEBF49A
Copy CRC EEEBF49A
Copy OK
Track 3
Filename F:\[MyRip]\03 - Low Ride.wav
Pre-gap length 0:00:00.02
Peak level 100.0 %
Track quality 100.0 %
Test CRC 606B0E7F
Copy CRC 606B0E7F
Copy OK
Track 4
Filename F:\[MyRip]\04 - Just Like Yesterday.wav
Pre-gap length 0:00:01.08
Peak level 93.1 %
Track quality 100.0 %
Test CRC 8B3749D7
Copy CRC 8B3749D7
Copy OK
Track 5
Filename F:\[MyRip]\05 - If You're Still In Love With Me.wav
Pre-gap length 0:00:00.03
Peak level 100.0 %
Track quality 100.0 %
Test CRC FC38BF69
Copy CRC FC38BF69
Copy OK
Track 6
Filename F:\[MyRip]\06 - I Never Thought I'd Leave You.wav
Pre-gap length 0:00:00.03
Peak level 97.8 %
Track quality 100.0 %
Test CRC BED82B7E
Copy CRC BED82B7E
Copy OK
Track 7
Filename F:\[MyRip]\07 - Christina.wav
Pre-gap length 0:00:00.02
Peak level 86.3 %
Track quality 100.0 %
Test CRC F8710DF5
Copy CRC F8710DF5
Copy OK
Track 8
Filename F:\[MyRip]\08 - Night Drive.wav
Pre-gap length 0:00:00.60
Peak level 100.0 %
Track quality 99.9 %
Test CRC 621C92D2
Copy CRC 621C92D2
Copy OK
No errors occured
End of status report
 
Содержание индексной карты (.CUE)
REM GENRE "Smooth Jazz"
REM DATE 1983
REM DISCID 6F089C08
REM COMMENT "ExactAudioCopy v0.95b3"
PERFORMER "Earl Klugh"
TITLE "Low Ride"
FILE "01 - Back In Central Park.flac" WAVE
TRACK 01 AUDIO
TITLE "Back In Central Park"
PERFORMER "Earl Klugh"
PREGAP 00:00:33
INDEX 01 00:00:00
TRACK 02 AUDIO
TITLE "(If You Want To) Be My Love"
PERFORMER "Earl Klugh"
INDEX 00 03:51:45
FILE "02 - (If You Want To) Be My Love.flac" WAVE
INDEX 01 00:00:00
TRACK 03 AUDIO
TITLE "Low Ride"
PERFORMER "Earl Klugh"
INDEX 00 05:20:30
FILE "03 - Low Ride.flac" WAVE
INDEX 01 00:00:00
TRACK 04 AUDIO
TITLE "Just Like Yesterday"
PERFORMER "Earl Klugh"
INDEX 00 05:39:60
FILE "04 - Just Like Yesterday.flac" WAVE
INDEX 01 00:00:00
TRACK 05 AUDIO
TITLE "If You're Still In Love With Me"
PERFORMER "Earl Klugh"
INDEX 00 04:27:07
FILE "05 - If You're Still In Love With Me.flac" WAVE
INDEX 01 00:00:00
TRACK 06 AUDIO
TITLE "I Never Thought I'd Leave You"
PERFORMER "Earl Klugh"
INDEX 00 02:37:32
FILE "06 - I Never Thought I'd Leave You.flac" WAVE
INDEX 01 00:00:00
TRACK 07 AUDIO
TITLE "Christina"
PERFORMER "Earl Klugh"
INDEX 00 03:47:00
FILE "07 - Christina.flac" WAVE
INDEX 01 00:00:00
TRACK 08 AUDIO
TITLE "Night Drive"
PERFORMER "Earl Klugh"
INDEX 00 04:10:45
FILE "08 - Night Drive.flac" WAVE
INDEX 01 00:00:00
 
Состав
Earl Klugh - acoustic guitars,keyboards,rhythm arrangements
Greg Philinganes - keyboards,synthesizers and rhythm arrangements
Paul Jackson - electric guitar
Louis Johnson - bass
Raymond Pounds - drums
Paulinho Da Costa - percussion
Charles Meeks - bass
Denzil "Broadway"Miller - electric piano
Lucio Harper - bass
Ronnie Foster - electric piano
James Bradley Jr. - drums
Frank Floyd - vocals
Merle Miller - vocals
Dana Kral - vocals
Marti McCall - vocals
Carolyn Dennis - vocals
Myrna Matthews - vocals
01:35
670
Нет комментариев. Ваш будет первым!