Поиск

(Smooth, Pop-Jazz) Earl Klugh - Wishful Thinking - 1984, FLAC (tracks+.cue), lossless

(Smooth, Pop-Jazz) Earl Klugh - Wishful Thinking - 1984, FLAC (tracks+.cue), lossless
Треклист:
•Earl Klugh - Wishful Thinking•
Жанр: Smooth, Pop-Jazz
Страна-производитель диска: USA
Год издания диска: 1984
Издатель (лейбл): Capitol Records
Номер по каталогу: CDP7 46030
Аудиокодек: FLAC (*.flac)
Тип рипа: tracks+.cue
Битрейт аудио: lossless
Продолжительность: 00:35:40
Источник (релизер): tiburon
Наличие сканов в содержимом раздачи: да
Треклист:
01. Wishful Thinking
02. Tropical Legs
03. All the Time
04. A Natural Thing
05. Once Again
06. Take It from the Top
07. The Only One for Me
08. Right from the Start
 
Лог создания рипа
Exact Audio Copy V0.99 prebeta 4 from 23. January 2008
EAC extraction logfile from 5. September 2009, 13:32
Earl Klugh / Wishful Thinking
Used drive : PLEXTOR CD-R PREMIUM2 Adapter: 1 ID: 1
Read mode : Secure
Utilize accurate stream : Yes
Defeat audio cache : Yes
Make use of C2 pointers : No
Read offset correction : 30
Overread into Lead-In and Lead-Out : No
Fill up missing offset samples with silence : Yes
Delete leading and trailing silent blocks : No
Null samples used in CRC calculations : Yes
Used interface : Installed external ASPI interface
Gap handling : Appended to previous track
Used output format : User Defined Encoder
Selected bitrate : 32 kBit/s
Quality : High
Add ID3 tag : No
Command line compressor : C:\Programmi\FLAC\flac.exe
Additional command line options : -8 -V -T "ARTIST=%a" -T "TITLE=%t" -T "ALBUM=%g" -T "DATE=%y" -T "TRACKNUMBER=%n" -T "GENRE=%m" -T "COMMENT=EAC FLAC -8" %s
TOC of the extracted CD
Track | Start | Length | Start sector | End sector
---------------------------------------------------------
1 | 0:00.00 | 3:57.45 | 0 | 17819
2 | 3:57.45 | 5:31.15 | 17820 | 42659
3 | 9:28.60 | 4:38.42 | 42660 | 63551
4 | 14:07.27 | 2:56.28 | 63552 | 76779
5 | 17:03.55 | 4:17.62 | 76780 | 96116
6 | 21:21.42 | 3:59.58 | 96117 | 114099
7 | 25:21.25 | 4:50.15 | 114100 | 135864
8 | 30:11.40 | 5:28.47 | 135865 | 160511
Track 1
Filename D:\My Rip\01 - Wishful Thinking.wav
Pre-gap length 0:00:02.00
Peak level 97.9 %
Track quality 100.0 %
Test CRC 98831BCD
Copy CRC 98831BCD
Accurately ripped (confidence 8) [96D2ADCC]
Copy OK
Track 2
Filename D:\My Rip\02 - Tropical Legs.wav
Pre-gap length 0:00:00.44
Peak level 78.9 %
Track quality 100.0 %
Test CRC D6E50674
Copy CRC D6E50674
Accurately ripped (confidence 8) [E71E6CD6]
Copy OK
Track 3
Filename D:\My Rip\03 - All The Time.wav
Pre-gap length 0:00:00.77
Peak level 79.7 %
Track quality 100.0 %
Test CRC DC6F871E
Copy CRC DC6F871E
Accurately ripped (confidence 8) [CB95FC85]
Copy OK
Track 4
Filename D:\My Rip\04 - A Natural Thing.wav
Pre-gap length 0:00:00.49
Peak level 68.2 %
Track quality 100.0 %
Test CRC 9F43C85F
Copy CRC 9F43C85F
Accurately ripped (confidence 8) [79054A90]
Copy OK
Track 5
Filename D:\My Rip\05 - Once Again.wav
Pre-gap length 0:00:00.44
Peak level 73.0 %
Track quality 100.0 %
Test CRC 107C9B75
Copy CRC 107C9B75
Accurately ripped (confidence 8) [A25AB9D4]
Copy OK
Track 6
Filename D:\My Rip\06 - Take It From The Top.wav
Pre-gap length 0:00:00.66
Peak level 100.0 %
Track quality 100.0 %
Test CRC 92C57193
Copy CRC 92C57193
Accurately ripped (confidence 8) [C737C6CE]
Copy OK
Track 7
Filename D:\My Rip\07 - The Only One For Me.wav
Pre-gap length 0:00:00.93
Peak level 100.0 %
Track quality 99.9 %
Test CRC 6928ED44
Copy CRC 6928ED44
Accurately ripped (confidence 8) [9938CCC9]
Copy OK
Track 8
Filename D:\My Rip\08 - Right From The Start.wav
Pre-gap length 0:00:02.13
Peak level 82.3 %
Track quality 100.0 %
Test CRC 209A76BB
Copy CRC 209A76BB
Accurately ripped (confidence 8) [37DDFF74]
Copy OK
All tracks accurately ripped
No errors occurred
End of status report
 
Содержание индексной карты (.CUE)
REM GENRE Fusion
REM DATE 1984
REM DISCID 5F085C08
REM COMMENT "ExactAudioCopy v0.99pb4"
PERFORMER "Earl Klugh"
TITLE "Wishful Thinking"
FILE "01 - Wishful Thinking.flac" WAVE
TRACK 01 AUDIO
TITLE "Wishful Thinking"
PERFORMER "Earl Klugh"
INDEX 01 00:00:00
TRACK 02 AUDIO
TITLE "Tropical Legs"
PERFORMER "Earl Klugh"
INDEX 00 03:57:12
FILE "02 - Tropical Legs.flac" WAVE
INDEX 01 00:00:00
TRACK 03 AUDIO
TITLE "All The Time"
PERFORMER "Earl Klugh"
INDEX 00 05:30:32
FILE "03 - All The Time.flac" WAVE
INDEX 01 00:00:00
TRACK 04 AUDIO
TITLE "A Natural Thing"
PERFORMER "Earl Klugh"
INDEX 00 04:38:05
FILE "04 - A Natural Thing.flac" WAVE
INDEX 01 00:00:00
TRACK 05 AUDIO
TITLE "Once Again"
PERFORMER "Earl Klugh"
INDEX 00 02:55:70
FILE "05 - Once Again.flac" WAVE
INDEX 01 00:00:00
TRACK 06 AUDIO
TITLE "Take It From The Top"
PERFORMER "Earl Klugh"
INDEX 00 04:17:12
FILE "06 - Take It From The Top.flac" WAVE
INDEX 01 00:00:00
TRACK 07 AUDIO
TITLE "The Only One For Me"
PERFORMER "Earl Klugh"
INDEX 00 03:58:63
FILE "07 - The Only One For Me.flac" WAVE
INDEX 01 00:00:00
TRACK 08 AUDIO
TITLE "Right From The Start"
PERFORMER "Earl Klugh"
INDEX 00 04:48:05
FILE "08 - Right From The Start.flac" WAVE
INDEX 01 00:00:00
 
Состав
Earl Klugh - guitars,acoustic piano
Barry Eastmond - keyboards
Luico Hooper - bass
Ted Thomas,Jr.- drums
Eric Gale - electric guitar
Sammy Figueroa - percussion
Carlos Rios - electric guitar
Ronnie Foster - keyboards
Charles Meeks - bass
James Bradley,Jr. - drums
Phil Upchurch - electric guitar
Donald Griffin - electric guitar
Paulihno Da Costa - percussion
Dave Matthews - conductor and orchestra arranger
Don Sebesky - conductor and orchestra arranger
Ron Carter - bass
Brian Brake - drums
Joe Beck - electric guitar
David Sanborn - sax
Приватный:
Нет (DHT включён)
Размер:
200.70 Мб (210,448,822 байт) » файлов: 20
Участники:
0 раздают, 0 качают (0 участников всего)
Внешние участники:
3 раздают, 1 качают (4 участников всего) [ Обновить ]
For power users only: no seeders - write to support@pro-jazz.com. Для power user: нет сидеров - пишите на support@pro-jazz.com.
02:34
176
Нет комментариев. Ваш будет первым!