Поиск

(Smooth Jazz) Walter Beasley - Go With The Flow - 2003, APE (image + .cue), lossless

(Smooth Jazz) Walter Beasley - Go With The Flow - 2003, APE (image + .cue), lossless
Треклист:
Walter Beasley - Go With The Flow
Страна: USA
Жанр: Smooth Jazz
Год выпуска: 2003
Формат: APE (image + .cue)
Битрейт аудио: lossless
Продолжительность: 49:32
Трэклист:
1. Go With The Flow
2. West Hamilton Groove
3. Precious Moments
4. Suddenly
5. All I Want
6. My Pleasure
7. Brother
8. (Do I Ever) Cross Your Mind
9. Let Me Watch You
10. Don't Know Why
11. Over And Over
 
Files
Disc.jpg
Tau.JPG
WaLter Beasley (back).jpg
WaLter Beasley (front).jpg
WaLter Beasley (front back).jpg
Walter Beasley - Go With The Flow.ape
Walter Beasley - Go With The Flow.cue
Walter Beasley - Go With The Flow.log
Walter Beasley - Go With The Flow.torrent
Walter Beasley - Go With The Flow(ape).cue
 
EAC Log
Exact Audio Copy V0.99 prebeta 4 from 23. January 2008
Отчёт EAC об извлечении, выполненном 24. апреля 2010, 10:35
Walter Beasley / Go With The Flow
Дисковод: _NEC DVD_RW ND-3550A Adapter: 1 ID: 0
Режим чтения : Достоверность
Использование точного потока : Да
Отключение кэша аудио : Да
Использование указателей C2 : Нет
Коррекция смещения при чтении : 48
Способность читать области Lead-in и Lead-out : Нет
Заполнение пропущенных сэмплов тишиной : Да
Удаление блоков с тишиной в начале и конце : Нет
При вычислениях CRC использовались нулевые сэмплы : Да
Интерфейс : Встроенный Win32-интерфейс для Win NT/2000
Выходной формат : Внутренние WAV-операции
Формат сэмплов : 44.100 Гц; 16 бит; стерео
TOC извлечённого CD
Трек | Старт | Длительность | Начальный сектор | Конечный сектор
---------------------------------------------------------------------
1 | 0:00.00 | 5:22.10 | 0 | 24159
2 | 5:22.10 | 4:41.40 | 24160 | 45274
3 | 10:03.50 | 4:11.60 | 45275 | 64159
4 | 14:15.35 | 3:36.02 | 64160 | 80361
5 | 17:51.37 | 4:47.55 | 80362 | 101941
6 | 22:39.17 | 4:29.23 | 101942 | 122139
7 | 27:08.40 | 4:51.25 | 122140 | 143989
8 | 31:59.65 | 4:50.17 | 143990 | 165756
9 | 36:50.07 | 5:18.30 | 165757 | 189636
10 | 42:08.37 | 3:08.10 | 189637 | 203746
11 | 45:16.47 | 4:16.00 | 203747 | 222946
Характеристики диапазона извлечения и сообщения об ошибках
Выбранный диапазон
Имя файла C:\Torrents\Walter Beasley - Go With The Flow\Walter Beasley - Go With The Flow.wav
Пиковый уровень 100.0 %
Качество диапазона 99.9 %
CRC копии D7A602E7
Копирование... OK
Ошибок не произошло
AccurateRip: сводка
Трек 1 точность не определена (достоверность 2) [6172901F], AccurateRip вернул [DFE9D393]
Трек 2 точность не определена (достоверность 3) [B7D88965], AccurateRip вернул [5E90666F]
Трек 3 точность не определена (достоверность 3) [93C90EA3], AccurateRip вернул [7CDBD9FD]
Трек 4 точность не определена (достоверность 3) [AE49FB85], AccurateRip вернул [1A4C497B]
Трек 5 точность не определена (достоверность 2) [0F4C9DEF], AccurateRip вернул [D400C155]
Трек 6 точность не определена (достоверность 3) [44585457], AccurateRip вернул [5D81F9F5]
Трек 7 точность не определена (достоверность 3) [92C8B14E], AccurateRip вернул [B881C83E]
Трек 8 точность не определена (достоверность 3) [3E65A800], AccurateRip вернул [840CE5A8]
Трек 9 точность не определена (достоверность 3) [FD3F9D75], AccurateRip вернул [7E195BB3]
Трек 10 точность не определена (достоверность 3) [0289B60D], AccurateRip вернул [BFB505D7]
Трек 11 точность не определена (достоверность 3) [8325E2FD], AccurateRip вернул [1D1C831B]
Ни один трек не прошёл проверки на точность
В вашей базе может быть иной вариант штамповки диска
Конец отчёта
 
tau
 
Preview
Начинаю выставлять очень хорошего саксофониста. Он еще и поет. Я всегда удивлялся - наверное это очень сложно одновременно дудеть и петь.
Приватный:
Нет (DHT включён)
Размер:
311.31 Мб (326,433,915 байт) » файлов: 9
Участники:
0 раздают, 0 качают (0 участников всего)
Внешние участники:
3 раздают, 1 качают (4 участников всего) [ Обновить ]
12:14
6
Нет комментариев. Ваш будет первым!