Поиск

(Smooth Jazz) Walter Beasley - Walter Beasley Greatest Hits - 2005, APE (image + .cue), lossless

(Smooth Jazz) Walter Beasley - Walter Beasley Greatest Hits - 2005, APE (image + .cue), lossless
Треклист:
Walter Beasley - Walter Beasley Greatest Hits
Страна: USA
Жанр: Smooth Jazz
Год выпуска: 2005
Формат: APE (image + .cue)
Битрейт аудио: lossless
Продолжительность: 56:36
Трэклист:
1. Comin At Cha
2. I Feel You
3. If You Ever Loved...
4. Nice and Easy
5. I Wanna Know
6. Precious Moments
7. Won't You Let Me Love You
8. Slowly But Surely
9. Tantam
10. I'm So Happy
11. Freaknic
12. People Make the World Go 'Round
 
Files
Covers.ncd
tau.jpg
Walter Beasley - Walter Beasley Greatest Hits(ape).cue
Walter Beasley - Walter Beasley Greatest Hits.ape
Walter Beasley - Walter Beasley Greatest Hits.cue
Walter Beasley - Walter Beasley Greatest Hits.log
 
EAC Log
Exact Audio Copy V0.99 prebeta 4 from 23. January 2008
Отчёт EAC об извлечении, выполненном 27. февраля 2008, 20:14
Walter Beasley / Walter Beasley Greatest Hits
Дисковод: _NEC DVD_RW ND-3550A Adapter: 1 ID: 0
Режим чтения : Достоверность
Использование точного потока : Да
Отключение кэша аудио : Нет
Использование указателей C2 : Да
Коррекция смещения при чтении : 48
Способность читать области Lead-in и Lead-out : Нет
Заполнение пропущенных сэмплов тишиной : Да
Удаление блоков с тишиной в начале и конце : Нет
При вычислениях CRC использовались нулевые сэмплы : Нет
Интерфейс : Встроенный Win32-интерфейс для Win NT/2000
Выходной формат : Внутренние WAV-операции
Формат сэмплов : 44.100 Гц; 16 бит; стерео
TOC извлечённого CD
Трек | Старт | Длительность | Начальный сектор | Конечный сектор
---------------------------------------------------------------------
1 | 0:00.00 | 3:35.47 | 0 | 16171
2 | 3:35.47 | 4:20.00 | 16172 | 35671
3 | 7:55.47 | 5:03.50 | 35672 | 58446
4 | 12:59.22 | 4:23.30 | 58447 | 78201
5 | 17:22.52 | 4:10.00 | 78202 | 96951
6 | 21:32.52 | 4:11.60 | 96952 | 115836
7 | 25:44.37 | 4:09.00 | 115837 | 134511
8 | 29:53.37 | 5:08.25 | 134512 | 157636
9 | 35:01.62 | 4:37.02 | 157637 | 178413
10 | 39:38.64 | 4:42.05 | 178414 | 199568
11 | 44:20.69 | 5:41.41 | 199569 | 225184
12 | 50:02.35 | 6:34.05 | 225185 | 254739
Характеристики диапазона извлечения и сообщения об ошибках
Выбранный диапазон
Имя файла F:\Images\Walter Beasley\Walter Beasley - Walter Beasley Greatest Hits.wav
Пиковый уровень 98.9 %
Качество диапазона 100.0 %
CRC копии 8FE11E11
Копирование... OK
Ошибок не произошло
AccurateRip: сводка
Трек 1 нет в базе данных
Трек 2 нет в базе данных
Трек 3 нет в базе данных
Трек 4 нет в базе данных
Трек 5 нет в базе данных
Трек 6 нет в базе данных
Трек 7 нет в базе данных
Трек 8 нет в базе данных
Трек 9 нет в базе данных
Трек 10 нет в базе данных
Трек 11 нет в базе данных
Трек 12 нет в базе данных
Ни одного трека нет в базе AccurateRip
Конец отчёта
 
tau
Приватный:
Нет (DHT включён)
Размер:
381.76 Мб (400,300,553 байт) » файлов: 6
Участники:
0 раздают, 0 качают (0 участников всего)
Внешние участники:
--- [ Обновить ]
12:15
2
Нет комментариев. Ваш будет первым!