Поиск

(Jazz) Michel Legrand - Legrand Nougaro - 2005, APE (image + .cue), lossless

Треклист:
Michel Legrand - Legrand Nougaro
Страна: Франция
Жанр: Jazz
Год выпуска: 2005
Формат: APE (image + .cue)
Битрейт аудио: lossless
Продолжительность: 63:50
Трэклист:
01. Schplaouch (3:50)
02. Le cinйma (3:31)
03. L'йglise (6:50)
04. Les Don Juan (en dua avec Claude Nougaro) (3:23)
05. La chanson (2:15)
06. Ma fleur (6:15)
07. Le paradis (5:05)
08. Vachement dйcontractй (5:30)
09. Alcatraz (4:29)
10. Sa maison (3:14)
11. Le rouge et le noir (en duo avec Claude Nougaro) (2:21)
12. Mon dernier concert (3:45)
13. Bilboquet (3:48)
14. Tu dormiras longtemps (5:37)
15. Ouh ! (3:59)
 
Отчёт EAC
Exact Audio Copy V0.99 prebeta 3 from 28. July 2007
Отчёт EAC об извлечении, выполненном 21. февраля 2008, 17:44
Michel Legrand / Legrand Nougaro
Дисковод: PIONEER DVD-RW DVR-212 Adapter: 3 ID: 0
Режим чтения : Достоверность
Использование точного потока : Да
Отключение кэша аудио : Нет
Использование указателей C2 : Нет
Коррекция смещения при чтении : 48
Способность читать области Lead-in и Lead-out : Нет
Заполнение пропущенных сэмплов тишиной : Да
Удаление блоков с тишиной в начале и конце : Нет
При вычислениях CRC использовались нулевые сэмплы : Нет
Интерфейс : Встроенный Win32-интерфейс для Win NT/2000
Выходной формат : Внутренние WAV-операции
Формат сэмплов : 44.100 Гц; 16 бит; стерео
TOC извлечённого CD
Трек | Старт | Длительность | Начальный сектор | Конечный сектор
---------------------------------------------------------------------
1 | 0:00.00 | 3:49.52 | 0 | 17226
2 | 3:49.52 | 3:30.46 | 17227 | 33022
3 | 7:20.23 | 6:50.28 | 33023 | 63800
4 | 14:10.51 | 3:22.60 | 63801 | 79010
5 | 17:33.36 | 2:14.69 | 79011 | 89129
6 | 19:48.30 | 6:14.48 | 89130 | 117227
7 | 26:03.03 | 5:04.63 | 117228 | 140090
8 | 31:07.66 | 5:30.14 | 140091 | 164854
9 | 36:38.05 | 4:28.58 | 164855 | 185012
10 | 41:06.63 | 3:13.70 | 185013 | 199557
11 | 44:20.58 | 2:20.62 | 199558 | 210119
12 | 46:41.45 | 3:44.70 | 210120 | 226989
13 | 50:26.40 | 3:47.39 | 226990 | 244053
14 | 54:14.04 | 5:36.40 | 244054 | 269293
15 | 59:50.44 | 3:59.07 | 269294 | 287225
Характеристики диапазона извлечения и сообщения об ошибках
Выбранный диапазон
Имя файла G:\music lossless\Michel Legrand - Legrand Nougaro - 2005\Michel Legrand - Legrand Nougaro.wav
Пиковый уровень 100.0 %
Качество диапазона 99.9 %
CRC теста 496515F5
CRC копии 496515F5
Копирование... OK
Ошибок не произошло
Конец отчёта
Доп. информация: дебют французского мэтра Мишеля Леграна на лейбле "Blue Note". Данный альбом стал трибьютом Леграна певцу и композитору Клоду Нугаро – самому любимому после собственно Леграна французскому джазовому таланту 60-х. Песни Нугаро, бывшие в те годы настоящими хитами, теперь выполнены в характерной джазовой манере. Во время записи Мишель исполнил ведущие партии так, чтобы звучание было максимально приближено к "свинговому саунду". Диск примечателен еще и тем, что стал одним из первых "вокальных проявлений" Леграна-старшего за много лет. Великолепная лирика Клода Нугаро по-настоящему вдохновила Мишеля, что самым лучшим образом и запечатлел альбом.
Приватный:
Нет (DHT включён)
Размер:
420.11 Мб (440,516,739 байт) » файлов: 4
Участники:
0 раздают, 0 качают (0 участников всего)
Внешние участники:
1 раздают, 0 качают (1 участников всего) [ Обновить ]
12:14
10
Нет комментариев. Ваш будет первым!