Поиск

(Smooth Jazz) Steve Cole - NY LA - 2003, APE (image + .cue), lossless

Треклист:
Steve Cole - NY LA
Страна: USA
Жанр: Smooth Jazz
Год выпуска: 2003
Формат: APE (image + .cue)
Битрейт аудио: lossless
Продолжительность: 45:06
Трэклист:
1. NY LA
2. Everyday
3. Tonight It's On - featuring Mauli B. and Charlean Hines)
4. Love Letter
5. Off Broadway
6. Interlude IV
7. Every Little Thing - featuring Mauli B.
8. Missing You
9. Close Your Eyes, Free Your Mind
10. Keep It Live - featuring Brevi and Aloe Blacc)
 
Files
Covers.ncd
Steve Cole - NY LA(ape).cue
Steve Cole - NY LA.ape
Steve Cole - NY LA.cue
Steve Cole - NY LA.log
tau.jpg
 
EAC Log
Exact Audio Copy V0.99 prebeta 4 from 23. January 2008
Отчёт EAC об извлечении, выполненном 14. марта 2008, 14:08
Steve Cole / NY LA
Дисковод: _NEC DVD_RW ND-3550A Adapter: 1 ID: 0
Режим чтения : Достоверность
Использование точного потока : Да
Отключение кэша аудио : Да
Использование указателей C2 : Нет
Коррекция смещения при чтении : 48
Способность читать области Lead-in и Lead-out : Нет
Заполнение пропущенных сэмплов тишиной : Да
Удаление блоков с тишиной в начале и конце : Нет
При вычислениях CRC использовались нулевые сэмплы : Нет
Интерфейс : Встроенный Win32-интерфейс для Win NT/2000
Выходной формат : Внутренние WAV-операции
Формат сэмплов : 44.100 Гц; 16 бит; стерео
TOC извлечённого CD
Трек | Старт | Длительность | Начальный сектор | Конечный сектор
---------------------------------------------------------------------
1 | 0:00.00 | 3:38.32 | 0 | 16381
2 | 3:38.32 | 4:19.48 | 16382 | 35854
3 | 7:58.05 | 3:31.07 | 35855 | 51686
4 | 11:29.12 | 4:48.38 | 51687 | 73324
5 | 16:17.50 | 4:18.22 | 73325 | 92696
6 | 20:35.72 | 2:05.15 | 92697 | 102086
7 | 22:41.12 | 3:27.35 | 102087 | 117646
8 | 26:08.47 | 4:45.40 | 117647 | 139061
9 | 30:54.12 | 3:38.68 | 139062 | 155479
10 | 34:33.05 | 10:33.25 | 155480 | 202979
Характеристики диапазона извлечения и сообщения об ошибках
Выбранный диапазон
Имя файла F:\Images\Новая папка\Steve Cole - NY LA.wav
Пиковый уровень 100.0 %
Качество диапазона 99.9 %
CRC копии 40A9B19F
Копирование... OK
Ошибок не произошло
AccurateRip: сводка
Трек 1 точность не определена (достоверность 1) [0372C1C2], AccurateRip вернул [0F6B4630]
Трек 2 точность не определена (достоверность 1) [04CF2A80], AccurateRip вернул [EED840BE]
Трек 3 нет в базе данных
Трек 4 точность не определена (достоверность 1) [04CFCCB4], AccurateRip вернул [CA725CBC]
Трек 5 точность не определена (достоверность 1) [2BEEAAA8], AccurateRip вернул [E9752E86]
Трек 6 точность не определена (достоверность 1) [87171A50], AccurateRip вернул [B9EA85D6]
Трек 7 точность не определена (достоверность 1) [D8AD7348], AccurateRip вернул [F41B15E8]
Трек 8 точность не определена (достоверность 1) [2A1DED85], AccurateRip вернул [BFBC90E3]
Трек 9 точность не определена (достоверность 1) [1CFCC77C], AccurateRip вернул [1032E41E]
Трек 10 нет в базе данных
8 трек(и) не удалось проверить на точность
2 трек(и) не содержатся в базе AccurateRip
Ни один трек не прошёл проверки на точность
В вашей базе может быть иной вариант штамповки диска
Конец отчёта
 
tau
Приватный:
Нет (DHT включён)
Размер:
275.12 Мб (288,485,812 байт) » файлов: 6
Участники:
0 раздают, 0 качают (0 участников всего)
Внешние участники:
1 раздают, 0 качают (1 участников всего) [ Обновить ]
12:21
6
Нет комментариев. Ваш будет первым!