Поиск

(jazz) Special EFX - Catwalk - 1994, APE (image + .cue), lossless

Треклист:
Special EFX - Catwalk
Страна: USA
Жанр: jazz
Год выпуска: 1994
Формат: APE (image + .cue)
Битрейт аудио: lossless
Трэклист:
01. The Nitty Gritty [04:49]
02. Mercy Mercy Me [05:01]
03. Passions [04:37]
04. Dancing Cobra [05:37]
05. Siana [05:18]
06. George Can't Dance [05:00]
07. So Happy. So Sad [06:14]
08. Hip Hop Bop [05:49]
09. Forever This Love [05:03]
10. Concrete Jungle [04:32]
Доп. информация: Featuring Chieli Minucci & George Jinda
Merci Merci Me - Marvin Gaye's song cover (with vocal)
 
EAC log
Exact Audio Copy V0.99 prebeta 4 from 23. January 2008
Отчёт EAC об извлечении, выполненном 13. марта 2008, 10:13
Special EFX / Catwalk
Дисковод: Optiarc DVD RW AD-7170A Adapter: 0 ID: 0
Режим чтения : Достоверность
Использование точного потока : Да
Отключение кэша аудио : Да
Использование указателей C2 : Нет
Коррекция смещения при чтении : 48
Способность читать области Lead-in и Lead-out : Нет
Заполнение пропущенных сэмплов тишиной : Да
Удаление блоков с тишиной в начале и конце : Нет
При вычислениях CRC использовались нулевые сэмплы : Нет
Интерфейс : Установленный внешний ASPI-интерфейс
Выходной формат : Внутренние WAV-операции
Формат сэмплов : 44.100 Гц; 16 бит; стерео
Смещение при сжатии : 0
TOC извлечённого CD
Трек | Старт | Длительность | Начальный сектор | Конечный сектор
---------------------------------------------------------------------
1 | 0:00.37 | 4:49.63 | 37 | 21774
2 | 4:50.25 | 5:01.67 | 21775 | 44416
3 | 9:52.17 | 4:37.58 | 44417 | 65249
4 | 14:30.00 | 5:37.05 | 65250 | 90529
5 | 20:07.05 | 5:18.32 | 90530 | 114411
6 | 25:25.37 | 5:00.45 | 114412 | 136956
7 | 30:26.07 | 6:14.18 | 136957 | 165024
8 | 36:40.25 | 5:49.40 | 165025 | 191239
9 | 42:29.65 | 5:03.32 | 191240 | 213996
10 | 47:33.22 | 4:32.15 | 213997 | 234411
Характеристики диапазона извлечения и сообщения об ошибках
Выбранный диапазон
Имя файла C:\Моя музыка\Jazz Music\Special EFX - Catwalk\Special EFX - Catwalk.wav
Пиковый уровень 99.8 %
Качество диапазона 99.9 %
CRC копии 05E5BEAB
Копирование... OK
Ошибок не произошло
Конец отчёта
Приватный:
Нет (DHT включён)
Размер:
351.69 Мб (368,776,625 байт) » файлов: 5
Участники:
0 раздают, 0 качают (0 участников всего)
Внешние участники:
--- [ Обновить ]
12:22
6
Нет комментариев. Ваш будет первым!