Поиск

1999 Special EFX feat. Chieli Minucci - Masterpiece {Shanachie} [CD]

1999 Special EFX feat. Chieli Minucci - Masterpiece {Shanachie} [CD]
Дата издания диска:
16 апреля 1999
Издатель (лейбл):
Номер по каталогу:
SHA-CD-5054
Носитель:
CD
Тип рипа:
image+.cue
Аудиокодек:
APE (*.ape)
Битрейт аудио:
lossless
Наличие сканов:
только обложка
Треклист:

01. Masterpiece [03:07]
02. Speak To Me [05:44]
03. Bella [05:02]
04. Hold On [04:34]
05. Oceanna [04:48]
06. Miami [04:57]
07. No More Goodbyes [05:10]
08. She Will Remember [04:12]
09. Awakening [06:44]
10. Behold [05:10]
11. Close Encounters [08:56]
12. Speak TO Me (Down To The Bone Remix) [07:35]

Состав:
  • Chieli Minucci     Arranger, Composer, Drums, Guitar (Acoustic), Guitar (Electric), Keyboards, Producer, Programming
  • Jerry Brooks     Bass
  • Paul Wickliffe     Engineer, Mixing, Recorder
  • Mark Green     Engineer
  • Chris Morgans     Executive Producer
  • Fernando Saunders     Fretless Bass, Vocals
  • Steve Skinner     Keyboards, Programming
  • Neil Angilley     Keyboards
  • Ben Carinci     Keyboards
  • Robert Vosgien     Mastering
  • David Tyler     Mixing
  • Adrian d'Souza     Percussion, Tabla
  • Lao Tizer     Piano
  • Stuart Wade     Producer, Remixing
  • David Mann     Sax (Soprano), Sax (Tenor)
  • Barry Danielian     Trumpet
  • Armstead Christian     Vocals
Доп. инфо:

На 15-м альбоме группы, "Masterpiece" 1999 года, Special EFX исполняют более плавный, мирской джаз. Чиели Минуччи продюсировал альбом, а также играет на гитаре, подчеркивая своим техническим мастерством латинские и африканские композиции. Специальный ремикс на песню "Down to the Bone" также включен в альбом Masterpiece, добавляя еще одно измерение к звучанию группы.

Лог создания рипа
Exact Audio Copy V0.99 prebeta 4 from 23. January 2008
Отчёт EAC об извлечении, выполненном 7. марта 2008, 13:02
Special EFX / Masterpiece
Дисковод: Optiarc DVD RW AD-7170A Adapter: 0 ID: 0
Режим чтения : Достоверность
Использование точного потока : Да
Отключение кэша аудио : Да
Использование указателей C2 : Нет
Коррекция смещения при чтении : 48
Способность читать области Lead-in и Lead-out : Нет
Заполнение пропущенных сэмплов тишиной : Да
Удаление блоков с тишиной в начале и конце : Нет
При вычислениях CRC использовались нулевые сэмплы : Нет
Интерфейс : Установленный внешний ASPI-интерфейс
Выходной формат : Внутренние WAV-операции
Формат сэмплов : 44.100 Гц; 16 бит; стерео
Смещение при сжатии : 0
TOC извлечённого CD
Трек | Старт | Длительность | Начальный сектор | Конечный сектор
---------------------------------------------------------------------
1 | 0:00.00 | 3:07.15 | 0 | 14039
2 | 3:07.15 | 5:44.72 | 14040 | 39911
3 | 8:52.12 | 5:02.25 | 39912 | 62586
4 | 13:54.37 | 4:34.24 | 62587 | 83160
5 | 18:28.61 | 4:48.40 | 83161 | 104800
6 | 23:17.26 | 4:57.42 | 104801 | 127117
7 | 28:14.68 | 5:10.50 | 127118 | 150417
8 | 33:25.43 | 4:12.74 | 150418 | 169391
9 | 37:38.42 | 6:44.37 | 169392 | 199728
10 | 44:23.04 | 5:10.21 | 199729 | 222999
11 | 49:33.25 | 8:56.37 | 223000 | 263236
12 | 58:29.62 | 7:35.72 | 263237 | 297433
Характеристики диапазона извлечения и сообщения об ошибках
Выбранный диапазон
Имя файла C:\Моя музыка\Jazz Music\Special EFX - Masterpiece\Special EFX - Masterpiece.wav
Пиковый уровень 99.8 %
Качество диапазона 99.9 %
CRC копии E5F836D2
Копирование... OK
Ошибок не произошло
Конец отчёта
По всем вопросам пишите личное сообщение пользователю M0p94ok.
11:21
207
15:30