Поиск

(Smooth Jazz) Special EFX - Slice Of Life - 1988, FLAC (tracks + .cue), lossless

(Smooth Jazz) Special EFX - Slice Of Life - 1988, FLAC (tracks + .cue), lossless
Треклист:
Special EFX - Slice Of Life
Жанр: Smooth Jazz
Год выпуска: 1988
Формат: FLAC (tracks + .cue)
Битрейт аудио: lossless
Трэклист:
1. Uptown East
2. The Flow
3. Aquabogue
4. Yesterday's Memories
5. Formal Invitation
6. Bethany Beach
7. Timeless Mood
8. Jinji's Magic Bottle
9. Escape To Reality
10. Festival Of The Evergreens
11. Vacation For Life
Зарелизено на rutracker.org
и
Доп. информация:
Audio CD (August 26, 1988)
Number of Discs: 1
Label: Universal Music & VI
 
Лог извлечения EAC
EAC extraction logfile from 14. October 2006, 11:36 for CD
Special EFX / Slice Of Life
Used drive : HL-DT-STCD-RW GCE-8481B Adapter: 1 ID: 1
Read mode : Secure with NO C2, accurate stream, disable cache
Read offset correction : 6
Overread into Lead-In and Lead-Out : No
Used output format : C:\Program Files\Flac\bin\flac.exe (User Defined Encoder)
128 kBit/s
Additional command line options : -5 -V -T "ARTIST=%a" -T "TITLE=%t" -T "ALBUM=%g" -T "DATE=%y" -T "TRACKNUMBER=%n" -T "GENRE=%m" -T "COMMENT=EAC Flac 1.1.2 -5" %s
Other options :
Fill up missing offset samples with silence : Yes
Delete leading and trailing silent blocks : No
Native Win32 interface for Win NT & 2000
Track 1
Filename F:\EAC D1_2\Special EFX - Slice Of Life (1986) [FLAC]\01 - Uptown East.wav
Pre-gap length 0:00:02.00
Peak level 69.0 %
Track quality 100.0 %
Test CRC DB9733BE
Copy CRC DB9733BE
Copy OK
Track 2
Filename F:\EAC D1_2\Special EFX - Slice Of Life (1986) [FLAC]\02 - The Flow.wav
Pre-gap length 0:00:01.27
Peak level 84.3 %
Track quality 100.0 %
Test CRC 8E405717
Copy CRC 8E405717
Copy OK
Track 3
Filename F:\EAC D1_2\Special EFX - Slice Of Life (1986) [FLAC]\03 - Aquabogue.wav
Pre-gap length 0:00:00.05
Peak level 86.8 %
Track quality 100.0 %
Test CRC D973BAB6
Copy CRC D973BAB6
Copy OK
Track 4
Filename F:\EAC D1_2\Special EFX - Slice Of Life (1986) [FLAC]\04 - Yesterday's Memories.wav
Pre-gap length 0:00:01.37
Peak level 75.0 %
Track quality 100.0 %
Test CRC 8D87F0B9
Copy CRC 8D87F0B9
Copy OK
Track 5
Filename F:\EAC D1_2\Special EFX - Slice Of Life (1986) [FLAC]\05 - Formal Invitation.wav
Pre-gap length 0:00:01.10
Peak level 100.0 %
Track quality 100.0 %
Test CRC 39B88FE2
Copy CRC 39B88FE2
Copy OK
Track 6
Filename F:\EAC D1_2\Special EFX - Slice Of Life (1986) [FLAC]\06 - Bethany Beach.wav
Pre-gap length 0:00:00.22
Peak level 100.0 %
Track quality 100.0 %
Test CRC 676BB4B7
Copy CRC 676BB4B7
Copy OK
Track 7
Filename F:\EAC D1_2\Special EFX - Slice Of Life (1986) [FLAC]\07 - Slice Of Life-A. Timeless Mood.wav
Pre-gap length 0:00:00.48
Peak level 38.4 %
Track quality 100.0 %
Test CRC C9F54293
Copy CRC C9F54293
Copy OK
Track 8
Filename F:\EAC D1_2\Special EFX - Slice Of Life (1986) [FLAC]\08 - Slice Of Life-B. Jinji's Magic Bottle.wav
Pre-gap length 0:00:00.30
Peak level 98.9 %
Track quality 100.0 %
Test CRC 26CB0E89
Copy CRC 26CB0E89
Copy OK
Track 9
Filename F:\EAC D1_2\Special EFX - Slice Of Life (1986) [FLAC]\09 - Slice Of Life-C. Escape to Reality.wav
Peak level 91.3 %
Track quality 100.0 %
Test CRC 9A38631A
Copy CRC 9A38631A
Copy OK
Track 10
Filename F:\EAC D1_2\Special EFX - Slice Of Life (1986) [FLAC]\10 - Festival Of The Evergreens.wav
Pre-gap length 0:00:01.05
Peak level 100.0 %
Track quality 100.0 %
Test CRC EFA4356D
Copy CRC EFA4356D
Copy OK
Track 11
Filename F:\EAC D1_2\Special EFX - Slice Of Life (1986) [FLAC]\11 - Vacation For Life.wav
Peak level 96.5 %
Track quality 100.0 %
Test CRC 9FB6D59D
Copy CRC 9FB6D59D
Copy OK
No errors occured
End of status report
Приватный:
Нет (DHT включён)
Размер:
285.08 Мб (298,932,507 байт) » файлов: 16
Участники:
0 раздают, 0 качают (0 участников всего)
Внешние участники:
--- [ Обновить ]
11:32
3
Нет комментариев. Ваш будет первым!