Поиск

(Smooth Jazz) Chuck Loeb. Balance - 1991, APE (image + .cue), lossless

(Smooth Jazz) Chuck Loeb. Balance - 1991, APE (image + .cue), lossless
Треклист:
Chuck Loeb. Balance
Жанр: Smooth Jazz
Год выпуска: 1991
Формат: APE (image + .cue)
Битрейт аудио: lossless
Продолжительность: 57:48
Трэклист:
Chuck Loeb
Balance 1991
1. En El Rio
2. Daddy Longlegs
3. Starstream
4. Balance
5. Eternal Flame
6. The Day After Yesterday
7. Espionage
8. The Hello
9. Dear John
10. Straight A's
11. Faith Alone
Доп. информация:
 
Отчёт EAC
Exact Audio Copy V0.99 prebeta 3 from 28. July 2007
Отчёт EAC об извлечении, выполненном 21. ноября 2007, 13:25
Chuck Loeb / Balance
Дисковод: _NEC DVD_RW ND-2500A Adapter: 3 ID: 0
Режим чтения : Достоверность
Использование точного потока : Да
Отключение кэша аудио : Да
Использование указателей C2 : Нет
Коррекция смещения при чтении : 48
Способность читать области Lead-in и Lead-out : Нет
Заполнение пропущенных сэмплов тишиной : Да
Удаление блоков с тишиной в начале и конце : Нет
При вычислениях CRC использовались нулевые сэмплы : Да
Интерфейс : Установленный внешний ASPI-интерфейс
Выходной формат : Внутренние WAV-операции
Формат сэмплов : 44.100 Гц; 16 бит; стерео
TOC извлечённого CD
Трек | Старт | Длительность | Начальный сектор | Конечный сектор
---------------------------------------------------------------------
1 | 0:00.00 | 6:09.40 | 0 | 27714
2 | 6:09.40 | 6:13.27 | 27715 | 55716
3 | 12:22.67 | 4:54.31 | 55717 | 77797
4 | 17:17.23 | 5:24.55 | 77798 | 102152
5 | 22:42.03 | 6:24.00 | 102153 | 130952
6 | 29:06.03 | 5:39.55 | 130953 | 156432
7 | 34:45.58 | 4:08.05 | 156433 | 175037
8 | 38:53.63 | 5:03.33 | 175038 | 197795
9 | 43:57.21 | 5:58.20 | 197796 | 224665
10 | 49:55.41 | 5:34.04 | 224666 | 249719
11 | 55:29.45 | 2:19.05 | 249720 | 260149
Характеристики диапазона извлечения и сообщения об ошибках
Выбранный диапазон
Имя файла D:\1.Music\Jazz & Smooth\Chuck Loeb [Crossover_Jazz]\1991-Balance [lossless]\1991-Chuck Loeb-Balance.wav
Пиковый уровень 100.0 %
Качество диапазона 99.9 %
CRC копии DABB721C
Копирование... OK
Ошибок не произошло
Конец отчёта
Приватный:
Нет (DHT включён)
Размер:
293.52 Мб (307,781,186 байт) » файлов: 5
Участники:
0 раздают, 0 качают (0 участников всего)
Внешние участники:
--- [ Обновить ]
Никого нет на раздаче - пишите ЛС M0p94ok
No seeders - write PM to M0p94ok
11:33
16
Нет комментариев. Ваш будет первым!