Поиск

(Smooth Jazz) Novecento feat. Stanley Jordan - Dreams Of Peace - 2004, FLAC (tracks+.cue), lossless

Треклист:
Novecento feat. Stanley Jordan - Dreams Of Peace
Жанр: Smooth Jazz
Год выпуска: 2004
Формат: FLAC (tracks+.cue)
Битрейт аудио: lossless
Трэклист:
1. Tell Me Something
2. Flying On The Sky
3. Too Close To The Sun
4. Sky Flower
5. Destination Of My Heart
6. Spring
7. Dreams Of Peace
8. Easy Love
9. I Can Show You Something
Зарелизено на rutracker.org
и
Доп. информация:
Audio CD (August 3, 2004)
Original Release Date: July 27, 2004
Number of Discs: 1
Label: Favored Nations
 
Лог извлечения EAC
EAC extraction logfile from 12. October 2007, 23:53 for CD
Novecento (feat. Stanley Jordan) / Dreams Of Peace
Used drive : PIONEER DVD-RW DVR-108 Adapter: 3 ID: 1
Read mode : Secure with NO C2, accurate stream, disable cache
Read offset correction : 48
Overread into Lead-In and Lead-Out : No
Used output format : C:\Program Files\Exact Audio Copy\flac.exe (User Defined Encoder)
320 kBit/s
Additional command line options : -8 -V -T "ARTIST=%a" -T "TITLE=%t" -T "ALBUM=%g" -T "DATE=%y" -T "TRACKNUMBER=%n" -T "GENRE=%m" -T "COMMENT=EAC FLAC -8" %s
Other options :
Fill up missing offset samples with silence : Yes
Delete leading and trailing silent blocks : No
Installed external ASPI interface
Track 1
Filename I:\Novecento featuring Stanley Jordan - Dreams Of Peace (2004) [Flac]\01 - Tell Me Something.wav
Pre-gap length 0:00:02.00
Peak level 98.8 %
Track quality 100.0 %
Test CRC 9AC58BA7
Copy CRC 9AC58BA7
Copy OK
Track 2
Filename I:\Novecento featuring Stanley Jordan - Dreams Of Peace (2004) [Flac]\02 - Flying On The Sky.wav
Peak level 98.8 %
Track quality 99.9 %
Test CRC 9C672F76
Copy CRC 9C672F76
Copy OK
Track 3
Filename I:\Novecento featuring Stanley Jordan - Dreams Of Peace (2004) [Flac]\03 - Too Close To The Sun.wav
Peak level 97.7 %
Track quality 99.9 %
Test CRC 7F28A663
Copy CRC 7F28A663
Copy OK
Track 4
Filename I:\Novecento featuring Stanley Jordan - Dreams Of Peace (2004) [Flac]\04 - Sky Flower.wav
Peak level 98.8 %
Track quality 100.0 %
Test CRC CF42E1AC
Copy CRC CF42E1AC
Copy OK
Track 5
Filename I:\Novecento featuring Stanley Jordan - Dreams Of Peace (2004) [Flac]\05 - Destination Of My Heart.wav
Peak level 97.7 %
Track quality 100.0 %
Test CRC 8C9F0054
Copy CRC 8C9F0054
Copy OK
Track 6
Filename I:\Novecento featuring Stanley Jordan - Dreams Of Peace (2004) [Flac]\06 - Spring.wav
Peak level 98.8 %
Track quality 100.0 %
Test CRC 18FD28C0
Copy CRC 18FD28C0
Copy OK
Track 7
Filename I:\Novecento featuring Stanley Jordan - Dreams Of Peace (2004) [Flac]\07 - Dreams Of Peace.wav
Peak level 98.8 %
Track quality 100.0 %
Test CRC E9F2A64A
Copy CRC E9F2A64A
Copy OK
Track 8
Filename I:\Novecento featuring Stanley Jordan - Dreams Of Peace (2004) [Flac]\08 - Easy Love.wav
Peak level 98.8 %
Track quality 100.0 %
Test CRC F2BE8F01
Copy CRC F2BE8F01
Copy OK
Track 9
Filename I:\Novecento featuring Stanley Jordan - Dreams Of Peace (2004) [Flac]\09 - I Can Show You Something.wav
Peak level 98.8 %
Track quality 99.9 %
Test CRC 3BBE85A1
Copy CRC 3BBE85A1
Copy OK
No errors occured
End of status report
Шикарный смус, приятный женский вокал, что еще нужно чтобы получить удовольствие.
Приватный:
Нет (DHT включён)
Размер:
321.99 Мб (337,634,252 байт) » файлов: 19
Участники:
0 раздают, 0 качают (0 участников всего)
Внешние участники:
2 раздают, 1 качают (3 участников всего) [ Обновить ]
11:31
15
Нет комментариев. Ваш будет первым!