Поиск

(Smooth Jazz) Chris Standring - Hip Sway - 2000, FLAC (image + .cue), lossless

(Smooth Jazz) Chris Standring - Hip Sway - 2000, FLAC (image + .cue), lossless
Треклист:
Chris Standring - Hip Sway
Страна: USA
Жанр: Smooth Jazz
Год выпуска: 2000
Формат: FLAC (image + .cue)
Битрейт аудио: lossless
Продолжительность: 58:22:55
Трэклист:
01. Hip Sway
02. Glamour Girls
03. How Deep Is Your Love
04. Big Feet...Big Shoes
05. What Is Is
06. Pins & Needles
07. Good Medicine
08. I'm Not In Love
09. Big Pant People
10. Smile
11. Ultraviolet
12. Small Talk
13. Georgina
 
Отчёт EAC
Exact Audio Copy V0.99 prebeta 3 from 28. July 2007
Отчёт EAC об извлечении, выполненном 22. ноября 2007, 20:53
Chris Standring / Hip Sway
Дисковод: _NEC DVD_RW ND-2510A Adapter: 0 ID: 1
Режим чтения : Достоверность
Использование точного потока : Да
Отключение кэша аудио : Нет
Использование указателей C2 : Да
Комбинированное смещение чтения/записи : 0
Способность читать области Lead-in и Lead-out : Нет
Заполнение пропущенных сэмплов тишиной : Да
Удаление блоков с тишиной в начале и конце : Нет
При вычислениях CRC использовались нулевые сэмплы : Да
Интерфейс : Встроенный Win32-интерфейс для Win NT/2000
Выходной формат : Внутренние WAV-операции
Формат сэмплов : 44.100 Гц; 16 бит; стерео
TOC извлечённого CD
Трек | Старт | Длительность | Начальный сектор | Конечный сектор
---------------------------------------------------------------------
1 | 0:00.00 | 4:43.25 | 0 | 21249
2 | 4:43.25 | 4:43.25 | 21250 | 42499
3 | 9:26.50 | 4:02.72 | 42500 | 60721
4 | 13:29.47 | 4:18.40 | 60722 | 80111
5 | 17:48.12 | 6:46.23 | 80112 | 110584
6 | 24:34.35 | 4:50.30 | 110585 | 132364
7 | 29:24.65 | 4:53.00 | 132365 | 154339
8 | 34:17.65 | 5:02.47 | 154340 | 177036
9 | 39:20.37 | 5:10.23 | 177037 | 200309
10 | 44:30.60 | 4:17.07 | 200310 | 219591
11 | 48:47.67 | 5:22.28 | 219592 | 243769
12 | 54:10.20 | 4:12.35 | 243770 | 262704
13 | 58:22.55 | 4:57.12 | 262705 | 284991
Характеристики диапазона извлечения и сообщения об ошибках
Выбранный диапазон
Имя файла D:\Chris Standring - Hip Sway.wav
Пиковый уровень 99.6 %
Качество диапазона 100.0 %
CRC копии 975A1C88
Копирование... OK
Ошибок не произошло
Конец отчёта
Доп. информация: Label: Instinct Recordse
Приватный:
Нет (DHT включён)
Размер:
367.35 Мб (385,197,755 байт) » файлов: 4
Участники:
0 раздают, 0 качают (0 участников всего)
Внешние участники:
3 раздают, 1 качают (4 участников всего) [ Обновить ]
Никого нет на раздаче - пишите ЛС M0p94ok
No seeders - write PM to M0p94ok
11:31
15
Нет комментариев. Ваш будет первым!