Поиск

(Smooth Jazz, Saxophone) Boney James - Shine - 2006, FLAC (tracks + .cue), lossless

(Smooth Jazz, Saxophone) Boney James - Shine - 2006, FLAC (tracks + .cue), lossless
Треклист:
Boney James - Shine
Жанр: Smooth Jazz
Год выпуска: 2006
Формат: FLAC (tracks + .cue)
Битрейт аудио: lossless
Трэклист:
1. Shine 4:22
2. The Total Experience 3:59
3. Aquas De Marco 4:00
4. Let It Go 4:00
5. In The Rain 5:00
6. Gonna Get It 3:55
7. Breathe 3:59
8. Love Song 4:50
9. Hypnotic 4:12
10. The Way She Walks 4:01
11. Dedication 4:44
12. Soft 3:36
Зарелизено на rutracker.org
и
Доп. информация:
Audio CD (September 26, 2006)
Original Release Date: September 26, 2006
Number of Discs: 1
Label: Concord Records
 
Лог извлечения EAC
EAC extraction logfile from 2. September 2007, 15:57 for CD
Boney James / Shine
Used drive : TSSTcorpCD/DVDW SH-S182M Adapter: 2 ID: 0
Read mode : Secure with NO C2, accurate stream, disable cache
Read offset correction : 6
Overread into Lead-In and Lead-Out : No
Used output format : C:\EAC\flac-1.1.2-win\bin\flac.exe (User Defined Encoder)
320 kBit/s
Additional command line options : -V -8 -T "artist=%a" -T "title=%t" -T "album=%g" -T "date=%y" -T "tracknumber=%n" -T "genre=%m" %s
Other options :
Fill up missing offset samples with silence : Yes
Delete leading and trailing silent blocks : No
Installed external ASPI interface
Track 1
Filename E:\Boney James - Shine (2006) [FLAC]\01 - Shine.wav
Pre-gap length 0:00:02.00
Peak level 100.0 %
Track quality 100.0 %
Test CRC 2D3AC2E0
Copy CRC 2D3AC2E0
Copy OK
Track 2
Filename E:\Boney James - Shine (2006) [FLAC]\02 - The Total Experience.wav
Peak level 100.0 %
Track quality 100.0 %
Test CRC 222F8E37
Copy CRC 222F8E37
Copy OK
Track 3
Filename E:\Boney James - Shine (2006) [FLAC]\03 - Aquas De Marco (Waters of March).wav
Pre-gap length 0:00:00.38
Peak level 100.0 %
Track quality 100.0 %
Test CRC 94C4E612
Copy CRC 94C4E612
Copy OK
Track 4
Filename E:\Boney James - Shine (2006) [FLAC]\04 - Let It Go.wav
Peak level 100.0 %
Track quality 100.0 %
Test CRC E624B454
Copy CRC E624B454
Copy OK
Track 5
Filename E:\Boney James - Shine (2006) [FLAC]\05 - In the Rain.wav
Peak level 100.0 %
Track quality 100.0 %
Test CRC 88138108
Copy CRC 88138108
Copy OK
Track 6
Filename E:\Boney James - Shine (2006) [FLAC]\06 - Gonna Get It.wav
Pre-gap length 0:00:00.05
Peak level 100.0 %
Track quality 100.0 %
Test CRC 0B449B5A
Copy CRC 0B449B5A
Copy OK
Track 7
Filename E:\Boney James - Shine (2006) [FLAC]\07 - Breathe.wav
Peak level 100.0 %
Track quality 100.0 %
Test CRC 6650C6CE
Copy CRC 6650C6CE
Copy OK
Track 8
Filename E:\Boney James - Shine (2006) [FLAC]\08 - Love Song.wav
Peak level 100.0 %
Track quality 100.0 %
Test CRC 0BB4A2D1
Copy CRC 0BB4A2D1
Copy OK
Track 9
Filename E:\Boney James - Shine (2006) [FLAC]\09 - Hypnotic.wav
Peak level 100.0 %
Track quality 100.0 %
Test CRC 1E6B93BC
Copy CRC 1E6B93BC
Copy OK
Track 10
Filename E:\Boney James - Shine (2006) [FLAC]\10 - The Way She Walks.wav
Pre-gap length 0:00:00.60
Peak level 100.0 %
Track quality 100.0 %
Test CRC 7D840B00
Copy CRC 7D840B00
Copy OK
Track 11
Filename E:\Boney James - Shine (2006) [FLAC]\11 - Dedication.wav
Peak level 100.0 %
Track quality 99.9 %
Test CRC DBFA20FF
Copy CRC DBFA20FF
Copy OK
Track 12
Filename E:\Boney James - Shine (2006) [FLAC]\12 - Soft.wav
Peak level 98.8 %
Track quality 100.0 %
Test CRC ECE9A5A9
Copy CRC ECE9A5A9
Copy OK
No errors occured
End of status report
Этой раздачей Грабли продолжают и пока заканчивают раздачу прекрасного смус джазового саксофониста Бони Джеймса.
Приватный:
Нет (DHT включён)
Размер:
346.06 Мб (362,874,804 байт) » файлов: 31
Участники:
0 раздают, 0 качают (0 участников всего)
Внешние участники:
1 раздают, 0 качают (1 участников всего) [ Обновить ]
Никого нет на раздаче - пишите ЛС M0p94ok
No seeders - write PM to M0p94ok
11:40
31
Нет комментариев. Ваш будет первым!