Поиск

(Smooth Jazz) Peter White - 2007 - Peter White Christmas With Rick Braun & Mindi Abair, FLAC (tracks + .cue), lossless

Треклист:
Peter White - Peter White Christmas With Rick Braun & Mindi Abair
Жанр: Smooth Jazz
Год выпуска: 2007
Формат: FLAC (tracks + .cue)
Битрейт аудио: lossless
Трэклист:
1. The Little Drummer Boy 4:17
2. The Christmas Song 4:44
3. I Can't Wait For Christmas 5:42
4. Greensleeves (What Child Is This?) 3:24
5. Have Yourself A Merry Little Christmas 4:13
6. River 5:06
7. Jingle Jangle Blues 3:53
8. Silent Night 4:52
9. The Best Part of Christmas 3:41
10. Santa Claus Is Coming to Town/Boogie Woogie Bugle Boy 4:01
11. Happy Christmas/O Holy Night 5:26
12. White Christmas 2:35
Зарелизено на rutracker.org
и
Доп. информация:
Audio CD (September 25, 2007)
Original Release Date: August 14, 2007
Number of Discs: 1
Label: Artizen
 
Лог извлечения EAC
EAC extraction logfile from 30. October 2007, 13:04 for CD
Peter White / Peter White Christmas With Rick Braun & Mindi Abair
Used drive : TSSTcorpCD/DVDW SH-S182M Adapter: 0 ID: 1
Read mode : Secure with NO C2, accurate stream, disable cache
Read offset correction : 6
Overread into Lead-In and Lead-Out : No
Used output format : C:\EAC\flac-1.1.2-win\bin\flac.exe (User Defined Encoder)
320 kBit/s
Additional command line options : -8 -V -T "artist=%a" -T "title=%t" -T "album=%g" -T "date=%y" -T "tracknumber=%n" -T "genre=%m" -T "comment=Exact Audio Copy 0.95 b3 Secure Mode / FLAC q8 v. 1.1.2" %s
Other options :
Fill up missing offset samples with silence : Yes
Delete leading and trailing silent blocks : No
Installed external ASPI interface
Track 1
Filename E:\Peter White - Peter White Christmas With Rick Braun & Mindi Abair (2007) [FLAC]\01 - The Little Drummer Boy.wav
Pre-gap length 0:00:02.00
Peak level 98.8 %
Track quality 100.0 %
Test CRC 83AC829F
Copy CRC 83AC829F
Copy OK
Track 2
Filename E:\Peter White - Peter White Christmas With Rick Braun & Mindi Abair (2007) [FLAC]\02 - The Christmas Song.wav
Peak level 99.9 %
Track quality 100.0 %
Test CRC A36095BC
Copy CRC A36095BC
Copy OK
Track 3
Filename E:\Peter White - Peter White Christmas With Rick Braun & Mindi Abair (2007) [FLAC]\03 - I Can't Wait For Christmas.wav
Pre-gap length 0:00:00.40
Peak level 98.8 %
Track quality 100.0 %
Test CRC AA0D0E8F
Copy CRC AA0D0E8F
Copy OK
Track 4
Filename E:\Peter White - Peter White Christmas With Rick Braun & Mindi Abair (2007) [FLAC]\04 - Greensleeves (What Child Is This ).wav
Pre-gap length 0:00:00.18
Peak level 98.8 %
Track quality 99.9 %
Test CRC 832C9F98
Copy CRC 832C9F98
Copy OK
Track 5
Filename E:\Peter White - Peter White Christmas With Rick Braun & Mindi Abair (2007) [FLAC]\05 - Have Yourself A Merry Little Christmas.wav
Peak level 98.8 %
Track quality 100.0 %
Test CRC 0EAF85F2
Copy CRC 0EAF85F2
Copy OK
Track 6
Filename E:\Peter White - Peter White Christmas With Rick Braun & Mindi Abair (2007) [FLAC]\06 - River.wav
Peak level 100.0 %
Track quality 100.0 %
Test CRC 3D3D3A23
Copy CRC 3D3D3A23
Copy OK
Track 7
Filename E:\Peter White - Peter White Christmas With Rick Braun & Mindi Abair (2007) [FLAC]\07 - Jingle Jangle Blues.wav
Peak level 98.8 %
Track quality 100.0 %
Test CRC E4373583
Copy CRC E4373583
Copy OK
Track 8
Filename E:\Peter White - Peter White Christmas With Rick Braun & Mindi Abair (2007) [FLAC]\08 - Silent Night.wav
Peak level 98.8 %
Track quality 100.0 %
Test CRC 1C910223
Copy CRC 1C910223
Copy OK
Track 9
Filename E:\Peter White - Peter White Christmas With Rick Braun & Mindi Abair (2007) [FLAC]\09 - The Best Part Of Christmas.wav
Pre-gap length 0:00:00.25
Peak level 98.8 %
Track quality 99.9 %
Test CRC 528F3F21
Copy CRC 528F3F21
Copy OK
Track 10
Filename E:\Peter White - Peter White Christmas With Rick Braun & Mindi Abair (2007) [FLAC]\10 - Santa Claus Is Coming To Town,Boogie Woogie Bugle Boy-.wav
Pre-gap length 0:00:00.22
Peak level 98.8 %
Track quality 100.0 %
Test CRC 7623F162
Copy CRC 7623F162
Copy OK
Track 11
Filename E:\Peter White - Peter White Christmas With Rick Braun & Mindi Abair (2007) [FLAC]\11 - Happy Christmas,O Holy Night.wav
Peak level 100.0 %
Track quality 100.0 %
Test CRC 131362D8
Copy CRC 131362D8
Copy OK
Track 12
Filename E:\Peter White - Peter White Christmas With Rick Braun & Mindi Abair (2007) [FLAC]\12 - White Christmas.wav
Pre-gap length 0:00:02.08
Peak level 88.4 %
Track quality 100.0 %
Test CRC 53481B5A
Copy CRC 53481B5A
Copy OK
No errors occured
End of status report
Приватный:
Нет (DHT включён)
Размер:
325.40 Мб (341,209,038 байт) » файлов: 25
Участники:
0 раздают, 0 качают (0 участников всего)
Внешние участники:
--- [ Обновить ]
11:40
8
Нет комментариев. Ваш будет первым!