Поиск

(Smooth Jazz, Saxophone) Boney James - Pure - 2004, FLAC (tracks + .cue), lossless

(Smooth Jazz, Saxophone) Boney James - Pure - 2004, FLAC (tracks + .cue), lossless
Треклист:
Boney James - Pure
Жанр: Smooth Jazz
Год выпуска: 2004
Формат: FLAC (tracks + .cue)
Битрейт аудио: lossless
Трэклист:
1. Pure
2. Better With Time - featuring Bilal
3. 2:01 AM
4. Stone Groove - featuring Joe Sample
5. Appreciate - featuring Debi Nova
6. Here She Comes
7. Break Of Dawn - featuring Dwele
8. It's On
9. Thinkin' 'Bout Me
10. You Dont Have To Go Home
Зарелизено на rutracker.org
и
Доп. информация:
Audio CD (August 3, 2004)
Original Release Date: August 3, 2004
Number of Discs: 1
Label: Warner Bros / Wea
 
Лог извлечения EAC
EAC extraction logfile from 16. May 2007, 10:35 for CD
Boney James / Pure
Used drive : TSSTcorpCD/DVDW SH-S182M Adapter: 2 ID: 0
Read mode : Secure with NO C2, accurate stream, disable cache
Read offset correction : 6
Overread into Lead-In and Lead-Out : No
Used output format : C:\EAC\flac-1.1.2-win\bin\flac.exe (User Defined Encoder)
320 kBit/s
Additional command line options : -V -8 -T "artist=%a" -T "title=%t" -T "album=%g" -T "date=%y" -T "tracknumber=%n" -T "genre=%m" %s
Other options :
Fill up missing offset samples with silence : Yes
Delete leading and trailing silent blocks : No
Installed external ASPI interface
Track 1
Filename E:\Boney James - Pure (2004) [FLAC]\01 - Pure.wav
Pre-gap length 0:00:02.00
Peak level 100.0 %
Track quality 100.0 %
Test CRC C2CD8B5E
Copy CRC C2CD8B5E
Copy OK
Track 2
Filename E:\Boney James - Pure (2004) [FLAC]\02 - Better With Time.wav
Pre-gap length 0:00:01.77
Peak level 100.0 %
Track quality 100.0 %
Test CRC 1E4808E5
Copy CRC 1E4808E5
Copy OK
Track 3
Filename E:\Boney James - Pure (2004) [FLAC]\03 - 2_01 AM.wav
Pre-gap length 0:00:01.40
Peak level 100.0 %
Track quality 100.0 %
Test CRC 8B59738E
Copy CRC 8B59738E
Copy OK
Track 4
Filename E:\Boney James - Pure (2004) [FLAC]\04 - Stone Groove.wav
Peak level 100.0 %
Track quality 100.0 %
Test CRC 79AA2FDF
Copy CRC 79AA2FDF
Copy OK
Track 5
Filename E:\Boney James - Pure (2004) [FLAC]\05 - Appreciate.wav
Pre-gap length 0:00:01.80
Peak level 100.0 %
Track quality 100.0 %
Test CRC 9D851A7E
Copy CRC 9D851A7E
Copy OK
Track 6
Filename E:\Boney James - Pure (2004) [FLAC]\06 - Here She Comes.wav
Pre-gap length 0:00:02.06
Peak level 100.0 %
Track quality 99.9 %
Test CRC E6122008
Copy CRC E6122008
Copy OK
Track 7
Filename E:\Boney James - Pure (2004) [FLAC]\07 - Break Of Dawn.wav
Pre-gap length 0:00:02.00
Peak level 100.0 %
Track quality 100.0 %
Test CRC B27950A7
Copy CRC B27950A7
Copy OK
Track 8
Filename E:\Boney James - Pure (2004) [FLAC]\08 - It's On.wav
Pre-gap length 0:00:01.69
Peak level 100.0 %
Track quality 99.9 %
Test CRC 550F936B
Copy CRC 550F936B
Copy OK
Track 9
Filename E:\Boney James - Pure (2004) [FLAC]\09 - Thinkin' 'Bout Me.wav
Pre-gap length 0:00:01.62
Peak level 100.0 %
Track quality 100.0 %
Test CRC 493B15B7
Copy CRC 493B15B7
Copy OK
Track 10
Filename E:\Boney James - Pure (2004) [FLAC]\10 - You Don't Have To Go Home.wav
Pre-gap length 0:00:01.48
Peak level 100.0 %
Track quality 100.0 %
Test CRC 99727FDA
Copy CRC 99727FDA
Copy OK
No errors occured
End of status report
Этой раздачей Грабли продолжают раздачу прекрасного смус джазового саксофониста Бони Джеймса.
Скачивание доступно после регистрации!!
Приватный:
Нет (DHT включён)
Размер:
287.29 Мб (301,248,701 байт) » файлов: 21
Участники:
0 раздают, 0 качают (0 участников всего)
Внешние участники:
--- [ Обновить ]
11:39
3
Нет комментариев. Ваш будет первым!