Поиск

(Smooth Jazz) Rex Rideout - Club 1600 RIDIN`HIGH - 2002, APE (image + .cue), lossless

Треклист:
Rex Rideout - Club 1600 RIDIN`HIGH
Страна: USA
Жанр: Smooth Jazz
Год выпуска: 2002
Формат: APE (image + .cue)
Битрейт аудио: lossless
Продолжительность: 49:13:61
Трэклист:
1. To The Point
2. Before I Let Go
3. Tease
4. Follow My Heart
5. Ridin' High
6. Lover's Lane
7. Angel
8. Moment's Notice
9. Kendi's Song
10. Blow Like The Wind
11. Follow My Heart (Acoustic Mix)
 
Files
Back.jpg
Disc.jpg
Front Back.jpg
Front.jpg
Rex Rideout - Club 1600 RIDIN`HIGH(ape).cue
Rex Rideout - Club 1600 RIDIN`HIGH.ape
Rex Rideout - Club 1600 RIDIN`HIGH.cue
Rex Rideout - Club 1600 RIDIN`HIGH.log
tau.jpg
 
EAC Log
Exact Audio Copy V0.99 prebeta 4 from 23. January 2008
Отчёт EAC об извлечении, выполненном 18. марта 2009, 19:31
Rex Rideout / Club 1600 RIDIN`HIGH
Дисковод: _NEC DVD_RW ND-3550A Adapter: 1 ID: 0
Режим чтения : Достоверность
Использование точного потока : Да
Отключение кэша аудио : Да
Использование указателей C2 : Нет
Коррекция смещения при чтении : 48
Способность читать области Lead-in и Lead-out : Нет
Заполнение пропущенных сэмплов тишиной : Да
Удаление блоков с тишиной в начале и конце : Нет
При вычислениях CRC использовались нулевые сэмплы : Да
Интерфейс : Встроенный Win32-интерфейс для Win NT/2000
Выходной формат : Внутренние WAV-операции
Формат сэмплов : 44.100 Гц; 16 бит; стерео
TOC извлечённого CD
Трек | Старт | Длительность | Начальный сектор | Конечный сектор
---------------------------------------------------------------------
1 | 0:00.00 | 3:55.62 | 0 | 17686
2 | 3:55.62 | 4:19.58 | 17687 | 37169
3 | 8:15.45 | 4:56.40 | 37170 | 59409
4 | 13:12.10 | 4:40.40 | 59410 | 80449
5 | 17:52.50 | 3:51.67 | 80450 | 97841
6 | 21:44.42 | 5:39.03 | 97842 | 123269
7 | 27:23.45 | 4:51.17 | 123270 | 145111
8 | 32:14.62 | 4:18.20 | 145112 | 164481
9 | 36:33.07 | 4:08.08 | 164482 | 183089
10 | 40:41.15 | 3:52.22 | 183090 | 200511
11 | 44:33.37 | 4:40.25 | 200512 | 221536
Характеристики диапазона извлечения и сообщения об ошибках
Выбранный диапазон
Имя файла C:\Torrents\Rex Rideout - Club 1600 RIDIN`HIGH.wav
Пиковый уровень 98.8 %
Качество диапазона 99.9 %
CRC копии 73E8455C
Копирование... OK
Ошибок не произошло
AccurateRip: сводка
Трек 1 нет в базе данных
Трек 2 нет в базе данных
Трек 3 нет в базе данных
Трек 4 нет в базе данных
Трек 5 нет в базе данных
Трек 6 нет в базе данных
Трек 7 нет в базе данных
Трек 8 нет в базе данных
Трек 9 нет в базе данных
Трек 10 нет в базе данных
Трек 11 нет в базе данных
Ни одного трека нет в базе AccurateRip
Конец отчёта
 
tau
Preview
Скачивание доступно после регистрации!!
Приватный:
Нет (DHT включён)
Размер:
320.58 Мб (336,152,017 байт) » файлов: 9
Участники:
0 раздают, 0 качают (0 участников всего)
Внешние участники:
1 раздают, 0 качают (1 участников всего) [ Обновить ]
11:46
22
Нет комментариев. Ваш будет первым!