Поиск

(Smooth Jazz) Eric Marienthal - Just Around the Corner - 2007, APE (image + .cue), lossless

Треклист:
Eric Marienthal - Just Around the Corner
Страна: USA
Жанр: Smooth Jazz
Год выпуска: 2007
Формат: APE (image + .cue)
Битрейт аудио: lossless
Продолжительность: 44:13
Трэклист:
1. Blue Water
2. Times Square
3. Flower Child
4. Open Road
5. 21 Ocean Front
6. Just Around The Corner
7. I Believe In You
8. Dance With Me
9. Your Move
10. Lost Without You
Доп. информация:
 
файлы
Covers.ncd
Eric Marienthal - Just Around The Corner (ape).cue
Eric Marienthal - Just Around The Corner.ape
Eric Marienthal - Just Around The Corner.cue
Eric Marienthal - Just Around The Corner.log
tau.jpg
 
лог EAC
Exact Audio Copy V0.99 prebeta 1 from 25. May 2007
EAC extraction logfile from 15. December 2007, 12:12
Eric Marienthal / Just Around The Corner
Used drive : _NEC DVD_RW ND-3550A Adapter: 2 ID: 0
Read mode : Secure
Utilize accurate stream : Yes
Defeat audio cache : Yes
Make use of C2 pointers : No
Read offset correction : 48
Overread into Lead-In and Lead-Out : No
Fill up missing offset samples with silence : Yes
Delete leading and trailing silent blocks : No
Used interface : Installed external ASPI interface
Used output format : Internal WAV Routines
Sample format : 44.100 Hz; 16 Bit; Stereo
TOC of the extracted CD
Track | Start | Length | Start sector | End sector
---------------------------------------------------------
1 | 0:00.00 | 4:11.56 | 0 | 18880
2 | 4:11.56 | 4:27.10 | 18881 | 38915
3 | 8:38.66 | 4:52.09 | 38916 | 60824
4 | 13:31.00 | 4:13.57 | 60825 | 79856
5 | 17:44.57 | 4:18.68 | 79857 | 99274
6 | 22:03.50 | 4:24.34 | 99275 | 119108
7 | 26:28.09 | 4:13.46 | 119109 | 138129
8 | 30:41.55 | 3:38.24 | 138130 | 154503
9 | 34:20.04 | 4:36.53 | 154504 | 175256
10 | 38:56.57 | 5:16.58 | 175257 | 199014
Range status and errors
Selected range
Filename F:\Images\Eric Mariental\Eric Marienthal - Just Around The Corner.wav
Peak level 98.8 %
Range quality 99.9 %
Test CRC 401FBA3F
Copy CRC 401FBA3F
Copy OK
AccurateRip summary
Track 1 not present in database
Track 2 not present in database
Track 3 not present in database
Track 4 not present in database
Track 5 not present in database
Track 6 not present in database
Track 7 not present in database
Track 8 not present in database
Track 9 not present in database
Track 10 not present in database
No errors occurred
End of status report
 
TAU
Приватный:
Нет (DHT включён)
Размер:
284.77 Мб (298,601,214 байт) » файлов: 6
Участники:
0 раздают, 0 качают (0 участников всего)
Внешние участники:
--- [ Обновить ]
Никого нет на раздаче - пишите личное сообщение M0p94ok
No seeders - write personal message to M0p94ok
11:47
25
Нет комментариев. Ваш будет первым!