Поиск

(Smooth Jazz) Ronny Jordan - At Last - 2003, APE (image + .cue), lossless

(Smooth Jazz) Ronny Jordan - At Last - 2003, APE (image + .cue), lossless
Треклист:
Ronny Jordan - At Last
Страна: USA
Жанр: Smooth Jazz
Год выпуска: 2003
Формат: APE (image + .cue)
Битрейт аудио: lossless
Продолжительность: 47:04:00
Трэклист:
01. At Last
02. Nite And Day
03. Heaven
04. You Might Need Somebody - featuring Crystal Lake
05. Word Of Mouth
06. Tease
07. Rondezvous
08. Island Paradise
09. (In) The Limelight
10. St Tropez (Club Mix)
 
Отчёт EAC
Exact Audio Copy V0.99 prebeta 3 from 28. July 2007
Отчёт EAC об извлечении, выполненном 12. декабря 2007, 22:15
Ronny Jordan / At Last
Дисковод: _NEC DVD_RW ND-2510A Adapter: 0 ID: 1
Режим чтения : Достоверность
Использование точного потока : Да
Отключение кэша аудио : Нет
Использование указателей C2 : Да
Комбинированное смещение чтения/записи : 0
Способность читать области Lead-in и Lead-out : Нет
Заполнение пропущенных сэмплов тишиной : Да
Удаление блоков с тишиной в начале и конце : Нет
При вычислениях CRC использовались нулевые сэмплы : Да
Интерфейс : Встроенный Win32-интерфейс для Win NT/2000
Выходной формат : Внутренние WAV-операции
Формат сэмплов : 44.100 Гц; 16 бит; стерео
TOC извлечённого CD
Трек | Старт | Длительность | Начальный сектор | Конечный сектор
---------------------------------------------------------------------
1 | 0:00.00 | 4:47.27 | 0 | 21551
2 | 4:47.27 | 4:14.03 | 21552 | 40604
3 | 9:01.30 | 5:46.57 | 40605 | 66611
4 | 14:48.12 | 5:11.00 | 66612 | 89936
5 | 19:59.12 | 4:26.30 | 89937 | 109916
6 | 24:25.42 | 5:25.58 | 109917 | 134349
7 | 29:51.25 | 6:05.62 | 134350 | 161786
8 | 35:57.12 | 5:42.23 | 161787 | 187459
9 | 41:39.35 | 5:24.40 | 187460 | 211799
10 | 47:04.00 | 5:46.20 | 211800 | 237769
Характеристики диапазона извлечения и сообщения об ошибках
Выбранный диапазон
Имя файла D:\Ronny Jordan - At Last.wav
Пиковый уровень 100.0 %
Качество диапазона 100.0 %
CRC копии 0C95C663
Копирование... OK
Ошибок не произошло
Конец отчёта
Доп. информация: Label: N- Coded Music
Скачивание доступно после регистрации!!
Приватный:
Нет (DHT включён)
Размер:
274.78 Мб (288,132,200 байт) » файлов: 4
Участники:
0 раздают, 0 качают (0 участников всего)
Внешние участники:
5 раздают, 2 качают (7 участников всего) [ Обновить ]
11:45
10
Нет комментариев. Ваш будет первым!