Поиск

(Smooth Jazz) Peter White. Songs Of Season - 1997, APE (image + .cue), lossless

(Smooth Jazz) Peter White. Songs Of Season - 1997, APE (image + .cue), lossless
Треклист:
Peter White. Songs Of Season
Жанр: Smooth Jazz
Год выпуска: 1997
Формат: APE (image + .cue)
Битрейт аудио: lossless
Продолжительность: 41:59
Трэклист:
Peter White :Songs of the Season
1.The Christmas Song
2. Joy to the World, Hark! The Herald Angels...
3. What Child Is This?- Featuring Kirk Whalum
4. River- featuring Kenny Lattimore
5. The First Noel
6. O Tannenbaum - featuring Rick Braun
7. O Little Town of Bethlehem
8. Jingle Bells- featuring Greg Karukas
9. Silent Night- featuring Freddie Ravel
10. White Christmas
Доп. информация:
 
Отчёт EAC
Exact Audio Copy V0.99 prebeta 3 from 28. July 2007
Отчёт EAC об извлечении, выполненном 19. ноября 2007, 19:31
Peter White / Songs Of The Season
Дисковод: _NEC DVD_RW ND-2500A Adapter: 3 ID: 0
Режим чтения : Достоверность
Использование точного потока : Да
Отключение кэша аудио : Да
Использование указателей C2 : Нет
Коррекция смещения при чтении : 48
Способность читать области Lead-in и Lead-out : Нет
Заполнение пропущенных сэмплов тишиной : Да
Удаление блоков с тишиной в начале и конце : Нет
При вычислениях CRC использовались нулевые сэмплы : Да
Интерфейс : Установленный внешний ASPI-интерфейс
Выходной формат : Внутренние WAV-операции
Формат сэмплов : 44.100 Гц; 16 бит; стерео
TOC извлечённого CD
Трек | Старт | Длительность | Начальный сектор | Конечный сектор
---------------------------------------------------------------------
1 | 0:00.00 | 4:33.16 | 0 | 20490
2 | 4:33.16 | 3:16.16 | 20491 | 35206
3 | 7:49.32 | 4:27.71 | 35207 | 55302
4 | 12:17.28 | 4:56.49 | 55303 | 77551
5 | 17:14.02 | 4:16.38 | 77552 | 96789
6 | 21:30.40 | 4:24.35 | 96790 | 116624
7 | 25:55.00 | 2:05.72 | 116625 | 126071
8 | 28:00.72 | 5:38.48 | 126072 | 151469
9 | 33:39.45 | 4:26.37 | 151470 | 171456
10 | 38:06.07 | 3:53.48 | 171457 | 188979
Характеристики диапазона извлечения и сообщения об ошибках
Выбранный диапазон
Имя файла D:\1.Music\Jazz & Smooth\Peter White [Smooth_Jazz]\1997-Songs Of The Season [lossless]\1997-Peter White-Songs Of The Season.wav
Пиковый уровень 93.2 %
Качество диапазона 100.0 %
CRC копии 12E4A3D3
Копирование... OK
Ошибок не произошло
Конец отчёта
Наслаждайтесь еще одним альбомом этого великолепного исполнителя
Приватный:
Нет (DHT включён)
Размер:
231.56 Мб (242,805,101 байт) » файлов: 5
Участники:
0 раздают, 0 качают (0 участников всего)
Внешние участники:
3 раздают, 1 качают (4 участников всего) [ Обновить ]
11:35
29
Нет комментариев. Ваш будет первым!