Поиск

(Contemporary Jazz) Paul Brown - White Sand - 2007, FLAC (tracks + .cue), lossless

(Contemporary Jazz) Paul Brown - White Sand - 2007, FLAC (tracks + .cue), lossless
Треклист:
Paul Brown - White Sand
Жанр: Contemporary Jazz
Год выпуска: 2007
Формат: FLAC (tracks + .cue)
Битрейт аудио: lossless
Трэклист:
1. White Sand 4:21
2. The Rhythm Method 4:00
3. Makes Me Feel So Good 4:06
4. Ol' Skoolin' 4:25
5. Mercy, Mercy, Mercy 4:18
6. R 'n' B Bump 4:27
7. I Say A Little Prayer 3:37
8. More Or Less Paul 4:39
9. For What It's Worth 3:36
10. Mr. Cool 4:09
Зарелизено на rutracker.org
и
Доп. информация:
Audio CD (February 27, 2007)
Original Release Date: February 27, 2007
Number of Discs: 1
Label: Peak Records
 
Лог извлечения EAC
EAC extraction logfile from 27. February 2007, 19:00 for CD
Paul Brown / White Sand
Used drive : TSSTcorpCD/DVDW SH-S182M Adapter: 0 ID: 0
Read mode : Secure with NO C2, accurate stream, disable cache
Read offset correction : 6
Overread into Lead-In and Lead-Out : No
Used output format : C:\EAC\flac-1.1.2-win\bin\flac.exe (User Defined Encoder)
320 kBit/s
Additional command line options : -V -8 -T "artist=%a" -T "title=%t" -T "album=%g" -T "date=%y" -T "tracknumber=%n" -T "genre=%m" %s
Other options :
Fill up missing offset samples with silence : Yes
Delete leading and trailing silent blocks : No
Installed external ASPI interface
Track 1
Filename E:\Paul Brown - White Sand (2007) [FLAC]\01 - White Sand.wav
Pre-gap length 0:00:02.00
Peak level 99.9 %
Track quality 100.0 %
Test CRC 116939BF
Copy CRC 116939BF
Copy OK
Track 2
Filename E:\Paul Brown - White Sand (2007) [FLAC]\02 - The Rhythm Method.wav
Pre-gap length 0:00:03.00
Peak level 95.0 %
Track quality 100.0 %
Test CRC F65D7C41
Copy CRC F65D7C41
Copy OK
Track 3
Filename E:\Paul Brown - White Sand (2007) [FLAC]\03 - Makes Me Feel So Good.wav
Pre-gap length 0:00:03.00
Peak level 99.9 %
Track quality 100.0 %
Test CRC C01803A6
Copy CRC C01803A6
Copy OK
Track 4
Filename E:\Paul Brown - White Sand (2007) [FLAC]\04 - Ol' Skoolin'.wav
Pre-gap length 0:00:03.00
Peak level 99.9 %
Track quality 100.0 %
Test CRC 41321C2A
Copy CRC 41321C2A
Copy OK
Track 5
Filename E:\Paul Brown - White Sand (2007) [FLAC]\05 - Mercy, Mercy, Mercy.wav
Pre-gap length 0:00:02.00
Peak level 99.9 %
Track quality 100.0 %
Test CRC 33E4DC04
Copy CRC 33E4DC04
Copy OK
Track 6
Filename E:\Paul Brown - White Sand (2007) [FLAC]\06 - R 'N' B Bump.wav
Pre-gap length 0:00:02.00
Peak level 99.9 %
Track quality 100.0 %
Test CRC CA4B7AC7
Copy CRC CA4B7AC7
Copy OK
Track 7
Filename E:\Paul Brown - White Sand (2007) [FLAC]\07 - I Say a Little Prayer.wav
Pre-gap length 0:00:02.00
Peak level 99.9 %
Track quality 100.0 %
Test CRC DA086B3E
Copy CRC DA086B3E
Copy OK
Track 8
Filename E:\Paul Brown - White Sand (2007) [FLAC]\08 - More or Les Paul.wav
Pre-gap length 0:00:03.00
Peak level 99.9 %
Track quality 99.9 %
Test CRC 5E04C6CD
Copy CRC 5E04C6CD
Copy OK
Track 9
Filename E:\Paul Brown - White Sand (2007) [FLAC]\09 - For What It's Worth.wav
Pre-gap length 0:00:02.00
Peak level 99.9 %
Track quality 99.9 %
Test CRC 82B02537
Copy CRC 82B02537
Copy OK
Track 10
Filename E:\Paul Brown - White Sand (2007) [FLAC]\10 - Mr. Cool.wav
Pre-gap length 0:00:03.00
Peak level 99.9 %
Track quality 100.0 %
Test CRC E85E4C54
Copy CRC E85E4C54
Copy OK
No errors occured
End of status report
В записи принимали участия "френды" - Al Jarreau, Boney James, Bobby Caldwell, Lina, Euge Groove, Rick Braun, Jeff Lorber, Jesse J and David Benoit
Paul Brown - 2005 - City, FLAC (tracks + .cue)
Скачивание доступно после регистрации!!
Приватный:
Нет (DHT включён)
Размер:
266.45 Мб (279,392,663 байт) » файлов: 24
Участники:
0 раздают, 0 качают (0 участников всего)
Внешние участники:
--- [ Обновить ]
11:34
11
Нет комментариев. Ваш будет первым!