Поиск

(Contemporary Jazz) Richard Elliot - Chill Factor - 1999, FLAC (tracks + .cue), lossless

Треклист:
Richard Elliot - Chill Factor
Жанр: Contemporary Jazz
Год выпуска: 1999
Формат: FLAC (tracks + .cue)
Битрейт аудио: lossless
Трэклист:
1. Moomba 4:55
2. Chill Factor 4:58
3. Deep Touch 4:36
4. This Could Be Real 4:55
5. Who? 4:17
6. On The Fly 4:34
7. Adia 4:47
8. Like Butter 4:42
9. Kick It Up 5:13
10. Ain't Nothin' Like The Real Thing 4:51
11. Mikayla's Smile 2:15
Зарелизено на rutracker.org
и
Доп. информация:
Audio CD (July 13, 1999)
Original Release Date: July 13, 1999
Number of Discs: 1
Label: Blue Note Records
 
Лог извлечения EAC
EAC extraction logfile from 24. November 2007, 23:31 for CD
Richard Elliot / Chill Factor
Used drive : PLEXTOR DVDR PX-760A Adapter: 1 ID: 0
Read mode : Secure with NO C2, accurate stream, disable cache
Read offset correction : 30
Overread into Lead-In and Lead-Out : Yes
Used output format : C:\Program Files\FLAC\flac.exe (User Defined Encoder)
320 kBit/s
Additional command line options : -8 -V -T "ARTIST=%a" -T "TITLE=%t" -T "ALBUM=%g" -T "DATE=%y" -T "TRACKNUMBER=%n" -T "GENRE=%m" -T "COMMENT=EAC FLAC -8" %s
Other options :
Fill up missing offset samples with silence : Yes
Delete leading and trailing silent blocks : No
Native Win32 interface for Win NT & 2000
Track 1
Filename C:\APE\Richard Elliot\Richard Elliot - 1999 - Chill Factor\01 - Moomba.wav
Pre-gap length 0:00:02.00
Peak level 99.1 %
Track quality 100.0 %
Test CRC 8F888651
Copy CRC 8F888651
Copy OK
Track 2
Filename C:\APE\Richard Elliot\Richard Elliot - 1999 - Chill Factor\02 - Chill Factor.wav
Pre-gap length 0:00:01.45
Peak level 99.0 %
Track quality 100.0 %
Test CRC 24BB9766
Copy CRC 24BB9766
Copy OK
Track 3
Filename C:\APE\Richard Elliot\Richard Elliot - 1999 - Chill Factor\03 - Deep Touch.wav
Pre-gap length 0:00:01.28
Peak level 98.9 %
Track quality 100.0 %
Test CRC BA251FAB
Copy CRC BA251FAB
Copy OK
Track 4
Filename C:\APE\Richard Elliot\Richard Elliot - 1999 - Chill Factor\04 - This Could Be Real.wav
Pre-gap length 0:00:00.62
Peak level 99.0 %
Track quality 99.9 %
Test CRC 683AD3E1
Copy CRC 683AD3E1
Copy OK
Track 5
Filename C:\APE\Richard Elliot\Richard Elliot - 1999 - Chill Factor\05 - Who.wav
Pre-gap length 0:00:00.62
Peak level 98.9 %
Track quality 100.0 %
Test CRC 6EF1959F
Copy CRC 6EF1959F
Copy OK
Track 6
Filename C:\APE\Richard Elliot\Richard Elliot - 1999 - Chill Factor\06 - On The Fly.wav
Pre-gap length 0:00:01.10
Peak level 99.0 %
Track quality 100.0 %
Test CRC 577A13AE
Copy CRC 577A13AE
Copy OK
Track 7
Filename C:\APE\Richard Elliot\Richard Elliot - 1999 - Chill Factor\07 - Adia.wav
Pre-gap length 0:00:01.45
Peak level 98.9 %
Track quality 100.0 %
Test CRC 81E4E5CF
Copy CRC 81E4E5CF
Copy OK
Track 8
Filename C:\APE\Richard Elliot\Richard Elliot - 1999 - Chill Factor\08 - Like Butter.wav
Pre-gap length 0:00:00.38
Peak level 99.0 %
Track quality 99.9 %
Test CRC F229522F
Copy CRC F229522F
Copy OK
Track 9
Filename C:\APE\Richard Elliot\Richard Elliot - 1999 - Chill Factor\09 - Kick It Up.wav
Pre-gap length 0:00:01.07
Peak level 99.0 %
Track quality 100.0 %
Test CRC 66DF575E
Copy CRC 66DF575E
Copy OK
Track 10
Filename C:\APE\Richard Elliot\Richard Elliot - 1999 - Chill Factor\10 - Ain't Nothing Like The Real Thing.wav
Pre-gap length 0:00:00.62
Peak level 98.9 %
Track quality 100.0 %
Test CRC EBDF6CF3
Copy CRC EBDF6CF3
Copy OK
Track 11
Filename C:\APE\Richard Elliot\Richard Elliot - 1999 - Chill Factor\11 - Mikayla's Smile.wav
Pre-gap length 0:00:00.55
Peak level 94.2 %
Track quality 100.0 %
Test CRC A3FBA151
Copy CRC A3FBA151
Copy OK
No errors occured
End of status report
Приватный:
Нет (DHT включён)
Размер:
513.19 Мб (538,116,625 байт) » файлов: 20
Участники:
0 раздают, 0 качают (0 участников всего)
Внешние участники:
--- [ Обновить ]
11:36
8
Нет комментариев. Ваш будет первым!