Поиск

(Smooth Jazz) Michael Manson - Up Front - 2008, APE (image + .cue), lossless

Треклист:
Michael Manson - Up Front
Страна: USA
Жанр: Smooth Jazz
Год выпуска: 2008
Формат: APE (image + .cue)
Битрейт аудио: lossless
Продолжительность: 64:17
Трэклист:
1. (00:04:46) Michael Manson - Bring It On
2. (00:05:20) Michael Manson - Coming Right At Ya
3. (00:05:25) Michael Manson - Steppin' Out
4. (00:04:42) Michael Manson - She's Always There (For Lana)
5. (00:06:28) Michael Manson - End Of The Road
6. (00:05:22) Michael Manson - It's The Way She Moves
7. (00:06:06) Michael Manson - Outer Drive (Chicago Style)
8. (00:05:27) Michael Manson - Still Thinking About You
9. (00:06:25) Michael Manson - Up Front
10. (00:04:38) Michael Manson - Way Back When
11. (00:05:01) Michael Manson - Lovely Day
12. (20:59:40) Michael Manson - End Of The Road (Reprise)
13. (21:04:17) Michael Manson - Outer Drive (Reprise)
 
Files
Covers.ncd
Michael Manson - Up Front(ape).cue
Michael Manson - Up Front.ape
Michael Manson - Up Front.cue
Michael Manson - Up Front.log
Michael Manson - Up Front[rutracker.org].torrent
tau.jpg
 
EAC Log
Exact Audio Copy V0.99 prebeta 4 from 23. January 2008
Отчёт EAC об извлечении, выполненном 4. мая 2008, 16:41
Michael Manson / Up Front
Дисковод: _NEC DVD_RW ND-3550A Adapter: 1 ID: 0
Режим чтения : Достоверность
Использование точного потока : Да
Отключение кэша аудио : Да
Использование указателей C2 : Нет
Коррекция смещения при чтении : 48
Способность читать области Lead-in и Lead-out : Нет
Заполнение пропущенных сэмплов тишиной : Да
Удаление блоков с тишиной в начале и конце : Нет
При вычислениях CRC использовались нулевые сэмплы : Нет
Интерфейс : Встроенный Win32-интерфейс для Win NT/2000
Выходной формат : Внутренние WAV-операции
Формат сэмплов : 44.100 Гц; 16 бит; стерео
TOC извлечённого CD
Трек | Старт | Длительность | Начальный сектор | Конечный сектор
---------------------------------------------------------------------
1 | 0:00.00 | 4:46.45 | 0 | 21494
2 | 4:46.45 | 5:19.71 | 21495 | 45490
3 | 10:06.41 | 5:24.45 | 45491 | 69835
4 | 15:31.11 | 4:42.49 | 69836 | 91034
5 | 20:13.60 | 6:27.67 | 91035 | 120126
6 | 26:41.52 | 5:21.26 | 120127 | 144227
7 | 32:03.03 | 6:06.34 | 144228 | 171711
8 | 38:09.37 | 5:27.13 | 171712 | 196249
9 | 43:36.50 | 6:25.05 | 196250 | 225129
10 | 50:01.55 | 4:37.31 | 225130 | 245935
11 | 54:39.11 | 5:01.22 | 245936 | 268532
12 | 59:40.33 | 1:20.35 | 268533 | 274567
13 | 61:00.68 | 3:16.28 | 274568 | 289295
Характеристики диапазона извлечения и сообщения об ошибках
Выбранный диапазон
Имя файла F:\Images\Michael Manson\Michael Manson - Up Front.wav
Пиковый уровень 100.0 %
Качество диапазона 100.0 %
CRC копии BDC1CC1E
Копирование... OK
Ошибок не произошло
AccurateRip: сводка
Трек 1 нет в базе данных
Трек 2 нет в базе данных
Трек 3 нет в базе данных
Трек 4 нет в базе данных
Трек 5 нет в базе данных
Трек 6 нет в базе данных
Трек 7 нет в базе данных
Трек 8 нет в базе данных
Трек 9 нет в базе данных
Трек 10 нет в базе данных
Трек 11 нет в базе данных
Трек 12 нет в базе данных
Трек 13 нет в базе данных
Ни одного трека нет в базе AccurateRip
Конец отчёта
 
tau
Приватный:
Нет (DHT включён)
Размер:
435.65 Мб (456,812,889 байт) » файлов: 6
Участники:
0 раздают, 0 качают (0 участников всего)
Внешние участники:
--- [ Обновить ]
12:49
6
Нет комментариев. Ваш будет первым!